Торрент файл
скачать торрент магнет ссылка Добавлен: 08 янв 2012, 03:43
Размер: 216.16 МБ
Сидеров: 1
Личеров: 4
Автор

СообщениеДобавлено: 08 янв 2012, 03:43 

Не в сети
Супермодератор
Аватара пользователя
Дата регистрации:
22 май 2010, 11:03
Возраст: 32
Спасибо: 7690 / 13
Сообщения: 49871
TRUST X - Вспорхнуть в небеса


Формат: HDCamRip, WMV, WMV3, WMA
Песня: Вспорхнуть в небеса
Жанр: Heavy Power Metal
Продолжительность: 00:07:06
Год выпуска: 2011
Видео: VC-1, WMV3, 1920x1080 (16:9), 25.000 fps, 4 500 Kbps (0.087 bit/pixel)
Аудио: WMA, 48.0 KHz, 2 ch, 128 Kbps, CBR (Russian)
Доп. информация: Оригинал клипа с дебютного альбома Ставропольско-Краснодарской группы TRUST X. Видео не пережато и выложено как оно на диске!





Общее
Полное имя: E:\Up to the Skies.wmv
Формат: Windows Media
Размер файла: 216 Мбайт
Продолжительность: 7 м. 6 с.
Режим общего битрейта: Постоянный
Общий поток: 4253 Кбит/сек
Максимальный общий битрейт: 4665 Кбит/сек
Дата кодирования: UTC 2011-10-07 05:55:00.875

Видео
Идентификатор: 1
Формат: VC-1
Профиль формата: MP@HL
Идентификатор кодека: WMV3
Идентификатор кодека/Информация: Windows Media Video 9
Идентификатор кодека/Подсказка: WMV3
Описание кодека: Windows Media Video 9 - Professional
Продолжительность: 7 м. 6 с.
Вид битрейта: Постоянный
Битрейт: 4500 Кбит/сек
Ширина: 1920 пикс.
Высота: 1080 пикс.
Соотношение сторон: 16:9
Частота кадров: 25,000 кадр/сек
Битовая глубина: 8 бит
Тип развёртки: Прогрессивная
Метод сжатия: С потерями
Бит/(Пиксели*Кадры): 0.087
Размер потока: 229 Мбайт
Язык: Russian

Аудио
Идентификатор: 2
Формат: WMA
Версия формата: Version 2
Идентификатор кодека: 161
Идентификатор кодека/Информация: Windows Media Audio
Описание кодека: Windows Media Audio 9.2 - 128 kbps, 48 kHz, stereo 1-pass CBR
Продолжительность: 7 м. 6 с.
Вид битрейта: Постоянный
Битрейт: 128 Кбит/сек
Канал(ы): 2 канала(ов)
Частота: 48,0 КГц
Битовая глубина: 16 бит
Размер потока: 6,51 Мбайт (3%)
Язык: Russian

Поделиться:




реклама партнёра


Вернуться к началу
 Профиль Отправить личное сообщение  
 
   Похожие торренты   Автор   Торрент   Размер 
В этой теме нет новых непрочитанных сообщений. VA - Heavy Metal: Louder Than Life [2015, Hard Rock, Melodic Heavy Metal, Heavy Metal, MP3]

Nickolas3435

0 | 272

2.43 ГБ

В этой теме нет новых непрочитанных сообщений. Путь Огня - Страж Спящих Бурь [2013, Heavy, Power Metal, MP3]

salma3

0 | 10

71.86 МБ

В этой теме нет новых непрочитанных сообщений. Accept - Heavy Ballads (Heavy Metal. 2015) MP3

Aleksandr.ru

403 | 34

363.25 МБ

В этой теме нет новых непрочитанных сообщений. Рухнувшие небеса / Falling Skies [S01-05] [фантастика, боевик, триллер, 2011-2015] WEB-DL 720p, Mvo [LostFilm, Sci-Fi]

salma3

2 | 28

77.94 ГБ

В этой теме нет новых непрочитанных сообщений. Nightwish - Endless Forms Most Beautiful [2015, Gothic Metal, Symphonic Power Metal, MP3]

salma3

0 | 0

180.62 МБ

В этой теме нет новых непрочитанных сообщений. Nightwish - Endless Forms Most Beautiful [3CD Earbook Edition] [2015, Power Metal, Symphonic Metal, MP3]

Nickolas3435

233 | 35

515.68 МБ

В этой теме нет новых непрочитанных сообщений. Nightwish - Endless Forms Most Beautiful [3CD Earbook Edition] [2015, Power Metal, Symphonic Metal, FLAC]

Nickolas3435

86 | 9

1.52 ГБ


Начать новую тему Ответить на тему  [ 1 сообщение ] 




Для Мосгорсуда, Роскомнадзора и рекламодателей:: mosgorsud-torrent[собачка]yandex.ru