Торрент файл
скачать торрент магнет ссылка Добавлен: 08 янв 2012, 03:43
Размер: 216.16 МБ
Сидеров: 1
Личеров: 4
Автор

СообщениеДобавлено: 08 янв 2012, 03:43 

Не в сети
Супермодератор
Аватара пользователя
Дата регистрации:
22 май 2010, 11:03
Возраст: 37
Спасибо: 7939 / 13
Сообщения: 49828
TRUST X - Вспорхнуть в небеса


Формат: HDCamRip, WMV, WMV3, WMA
Песня: Вспорхнуть в небеса
Жанр: Heavy Power Metal
Продолжительность: 00:07:06
Год выпуска: 2011
Видео: VC-1, WMV3, 1920x1080 (16:9), 25.000 fps, 4 500 Kbps (0.087 bit/pixel)
Аудио: WMA, 48.0 KHz, 2 ch, 128 Kbps, CBR (Russian)
Доп. информация: Оригинал клипа с дебютного альбома Ставропольско-Краснодарской группы TRUST X. Видео не пережато и выложено как оно на диске!





Общее
Полное имя: E:\Up to the Skies.wmv
Формат: Windows Media
Размер файла: 216 Мбайт
Продолжительность: 7 м. 6 с.
Режим общего битрейта: Постоянный
Общий поток: 4253 Кбит/сек
Максимальный общий битрейт: 4665 Кбит/сек
Дата кодирования: UTC 2011-10-07 05:55:00.875

Видео
Идентификатор: 1
Формат: VC-1
Профиль формата: MP@HL
Идентификатор кодека: WMV3
Идентификатор кодека/Информация: Windows Media Video 9
Идентификатор кодека/Подсказка: WMV3
Описание кодека: Windows Media Video 9 - Professional
Продолжительность: 7 м. 6 с.
Вид битрейта: Постоянный
Битрейт: 4500 Кбит/сек
Ширина: 1920 пикс.
Высота: 1080 пикс.
Соотношение сторон: 16:9
Частота кадров: 25,000 кадр/сек
Битовая глубина: 8 бит
Тип развёртки: Прогрессивная
Метод сжатия: С потерями
Бит/(Пиксели*Кадры): 0.087
Размер потока: 229 Мбайт
Язык: Russian

Аудио
Идентификатор: 2
Формат: WMA
Версия формата: Version 2
Идентификатор кодека: 161
Идентификатор кодека/Информация: Windows Media Audio
Описание кодека: Windows Media Audio 9.2 - 128 kbps, 48 kHz, stereo 1-pass CBR
Продолжительность: 7 м. 6 с.
Вид битрейта: Постоянный
Битрейт: 128 Кбит/сек
Канал(ы): 2 канала(ов)
Частота: 48,0 КГц
Битовая глубина: 16 бит
Размер потока: 6,51 Мбайт (3%)
Язык: Russian

Поделиться:



Вернуться к началу
 Профиль Отправить личное сообщение  
 
   Похожие торренты   Автор   Торрент   Размер 
В этой теме нет новых непрочитанных сообщений. Не верь никому / Trust No 1 [Боевик, 2019] WEB-DLRip, Mvo

salma3

15 | 0

743.28 МБ

В этой теме нет новых непрочитанных сообщений. Измена / Доверие / Trust [Мелодрама, триллер, драма, 2021] WEB-DLRip 720p, Dub [Кинопоиск HD]

salma3

0 | 0

3.03 ГБ

В этой теме нет новых непрочитанных сообщений. Gueppardo - I Am The Law [2021 г., Heavy-Metal, Hard-Rock, MP3]

zorgi

0 | 0

77.49 МБ

В этой теме нет новых непрочитанных сообщений. Lauren Phillips - Ступени в небеса / Steps Into Heaven (2016) WEB-DLRip

zorgi

1 | 0

459.18 МБ

В этой теме нет новых непрочитанных сообщений. Серые небеса / Grey Skies [Ужасы, фантастика, 2010] WEB-DL 1080p, Mvo

salma3

18 | 0

5.9 ГБ

В этой теме нет новых непрочитанных сообщений. Lauren Phillips - Ступени в небеса / Steps Into Heaven (2016) WEB-DLRip 720p

zorgi

20 | 14

1.08 ГБ

В этой теме нет новых непрочитанных сообщений. W.A.S.P. - Dominator (FLAC) [Heavy Metal, 2007] FLAC (image+.cue), lossless

Redscarf

14 | 0

326.62 МБ


Начать новую тему Ответить на тему  [ 1 сообщение ] 




Для Мосгорсуда, Роскомнадзора и рекламодателей:: rstracker[собака]yandex.ru
cron