Торрент файл
скачать торрент магнет ссылка Добавлен: 08 янв 2012, 03:42
Размер: 4.36 ГБ
Сидеров: 0
Личеров: 3
Автор

СообщениеДобавлено: 08 янв 2012, 03:42 

Не в сети
Супермодератор
Аватара пользователя
Дата регистрации:
22 май 2010, 11:03
Возраст: 32
Спасибо: 7690 / 13
Сообщения: 49871
Motorhead - 25 & Alive: Boneshaker

Формат: DVD5 (сжатый), DVD Video, MPEG2, AC3
Песня: 25 & Alive: Boneshaker
Жанр: Hard Rock, Heavy Metal
Продолжительность: 01:54:40
Год выпуска: 2001
Видео: MPEG 2 VIDEO, 720*576( PAL 2.35:1), 25.00 fps,~ 4646 kbps avg, 0.448 bit/pixel
Аудио: 48,0 khz, AC 3, 6 ch, 448 kbps avg
Доп. информация: Концерт посвящённый 25-летию группы. Состоялся 22 октября 2000 года в Brixton Academy, Лондон. Видеоклипы: Sacrifice, God Save The Queen

Удалил: предостережение, заставку, бонусы, AC -3 2 ch. Видео сжато на 18%
    Состав

Lemmy Kilmister - Bass, Vocals
Phil Campbell - guitars
Mickey Dee - Drums

Special guests

"Fast" Eddie Clarke (ex-Motörhead, ex-Fastway) on "The Chase Is Better than the Catch" and "Overkill".
Todd Campbell (Phil Campbell's son, S.K.W.A.D.) on "Killed by Death".
Paul Inder (Lemmy's son) on "Killed By Death".
Whitfield Crane (ex-Ugly Kid Joe, ex-Medication) on "Born to Raise Hell".
Doro Pesch (ex-Warlock) on "Born to Raise Hell".
Brian May (Queen) on "Overkill".
Ace (ex-Skunk Anansie) on "Overkill
01. We Are Motorhead
02. No Class
03. I'm So Bad (Baby I Don't Care)
04. Over Your Shoulder
05. Civil War
06. Metropolis
07. Overnight Sensation
08. God Save the Queen
09. Born to Raise Hell
10. The Chase Is Better than the Catch
11. Stay Out of Jail
12. Dead Men Tell No Tales
13. You Better Run
14. Sacrifice
15. Orgasmatron
16. Going to Brazil
17. Broken
18. Damage Case
19. Iron Fist
20. Killed by Death
21. Bomber
22. Ace of Spades
23. Overkill
Title: Motothead - 25 & Alive Boneshaker
Size: 4.36 Gb ( 4 571 134,00 KBytes ) - DVD-5
Enabled regions: 1, 2, 3, 4, 5, 6, 7, 8

VTS_01 :
Play Length: 00:00:00
Video: PAL 16:9 (720x576) VBR, Auto Letterboxed

VTS_02 :
Play Length: 01:47:12
Video: PAL 16:9 (720x576) VBR, Auto Letterboxed
Audio:
English (Dolby AC3, 6 ch)

VTS_03 :
Play Length: 00:00:00
Video: PAL 16:9 (704x576) VBR, Auto Letterboxed
Audio:
English (Dolby AC3, 2 ch)

VTS_04 :
Play Length: 00:00:00
Video: PAL 16:9 (720x576) VBR, Auto Letterboxed
Audio:
English (Dolby AC3, 2 ch)

VTS_05 :
Play Length: 00:00:01
Video: PAL 16:9 (720x576) VBR, Auto Letterboxed
Audio:
English (Dolby AC3, 2 ch)

VTS_06 :
Play Length: 00:07:28+{00:03:59}+{00:03:29}
Video: PAL 4:3 (704x576) VBR
Audio:
English, AC3, 2/0 (L,R) ch, 256 kbps, Delay 0 mSec

VTS_07 :
Play Length: 00:00:00
Video: PAL 16:9 (704x576) VBR, Auto Letterboxed
Audio:
English (Dolby AC3, 2 ch)

VTS_08 :
Play Length: 00:00:00
Video: PAL 16:9 (704x576) VBR, Auto Letterboxed
Audio:
English (Dolby AC3, 2 ch)

VTS_09 :
Play Length: 00:00:00
Video: PAL 4:3 (704x576) VBR
Audio:
English (Dolby AC3, 2 ch)

VTS_10 :
Play Length: 00:00:00
Video: PAL 16:9 (720x576) VBR, Auto Letterboxed
Audio:
English (Dolby AC3, 2 ch)
Общее
Полное имя: D:\Torrents\Download\Motothead - 25 & Alive Boneshaker\VIDEO_TS\VTS_02_2.VOB
Формат: MPEG-PS
Размер файла: 1024 Мбайт
Продолжительность: 27 м.
Общий поток: 5198 Кбит/сек

Видео
Идентификатор: 224 (0xE0)
Формат: MPEG Video
Версия формата: Version 2
Профиль формата: Main@Main
Параметр BVOP формата: Да
Параметр матрицы формата: По умолчанию
Продолжительность: 27 м.
Вид битрейта: Переменный
Битрейт: 4646 Кбит/сек
Номинальный битрейт: 9000 Кбит/сек
Ширина: 720 пикс.
Высота: 576 пикс.
Соотношение сторон: 2,35:1
Частота кадров: 25,000 кадр/сек
Стандарт вещания: PAL
Цветовое пространство: YUV
Подвыборка цветности: 4:2:0
Битовая глубина: 8 бит
Тип развёртки: Чересстрочная
Порядок развёртки: Верхнее поле первое
Метод сжатия: С потерями
Бит/(Пиксели*Кадры): 0.448
Размер потока: 915 Мбайт (89%)

Аудио
Идентификатор: 128 (0x80)
Формат: AC-3
Формат/Информация: Audio Coding 3
Расширение режима: CM (complete main)
Продолжительность: 27 м.
Вид битрейта: Постоянный
Битрейт: 448 Кбит/сек
Каналы: 6 каналов
Расположение каналов: Front: L C R, Side: L R, LFE
Частота: 48,0 КГц
Битовая глубина: 16 бит
Метод сжатия: С потерями
Задержка видео: -248 мс.
Размер потока: 88,3 Мбайт (9%)

Меню












[b]Поделиться:




реклама партнёра


Вернуться к началу
 Профиль Отправить личное сообщение  
 
   Похожие торренты   Автор   Торрент   Размер 
В этой теме нет новых непрочитанных сообщений. VA - Heavy Metal: Louder Than Life [2015, Hard Rock, Melodic Heavy Metal, Heavy Metal, MP3]

Nickolas3435

0 | 272

2.43 ГБ

В этой теме нет новых непрочитанных сообщений. W.A.S.P. - Golgotha [2015, Heavy Metal, Glam Metal, Hard Rock, MP3]

salma3

0 | 0

108.17 МБ

В этой теме нет новых непрочитанных сообщений. Ozzy Osbourne - The Ultimate Sin [Remastered] (Hard Rock, Heavy Metal. 2014) MP3

Aleksandr.ru

96 | 9

100.38 МБ

В этой теме нет новых непрочитанных сообщений. Ария - Через все времена [Hard Rock, Heavy Metal, 2014] FLAC

Dracon

142 | 2

482.27 МБ

В этой теме нет новых непрочитанных сообщений. Сборник клипов - Hard Rock and Metal от ALEXnROCK Диск 2 [51 шт.] [Rock, Metal, 2017] DVDRip

salma3

16 | 7

4.26 ГБ

В этой теме нет новых непрочитанных сообщений. Сборник клипов - Hard Rock and Metal: Part 4 [Rock, Metal, 2017] DVDRip

salma3

6 | 3

4.19 ГБ

В этой теме нет новых непрочитанных сообщений. Radioactive - Дискография [2001-2015, Melodic hard rock, MP3]

salma3

0 | 0

964.94 МБ


Начать новую тему Ответить на тему  [ 1 сообщение ] 




Для Мосгорсуда, Роскомнадзора и рекламодателей:: mosgorsud-torrent[собачка]yandex.ru