Торрент файл
скачать торрент магнет ссылка Добавлен: 08 янв 2012, 03:42
Размер: 3.6 ГБ
Сидеров: 2
Личеров: 7
Автор

СообщениеДобавлено: 08 янв 2012, 03:42 

Не в сети
Супермодератор
Аватара пользователя
Дата регистрации:
22 май 2010, 11:03
Возраст: 33
Спасибо: 7721 / 13
Сообщения: 49847
Ozzy Osbourne - Blizzard Of Ozz - Speak Of The Devil

Формат: DVD5, DVD Video, MPEG2, PCM
Песня: Blizzard Of Ozz - Speak Of The Devil
Жанр: Hard Rock
Продолжительность: 01:11:48
Год выпуска: 2009
Видео: MPEG 2 VIDEO, 720*576 (PAL 16:9), 25.00 fps,~ 5189 kbps avg, 0.500 bit/pixel
Аудио: 48.0 khz, PCM, 2 ch, 1536 kbps avg
Доп. информация: Концерт вIrvine Meadows Amphitheater, Лагуна Хиллс, Калифорния, США. 6 декабря 1982 года.
    Состав

Ozzy Osbourne - vocals
Brad Gillis - guitar
Rudy Sarzo - bass
Tommy Aldridge - drums
Don Airey - keyboard
    Треклист

1. Over the Mountain
2. Mr. Crowley
3. Crazy Train
4. Revelation: Mother Earth
5. Steal Away
6. Suicide Solution
7. Goodbye to Romance
8. I Don't Know
9. Believer
10. Flying High Again
11. Iron Man
12. Children of the Grave
13. Paranoid
Title: Ozzy Osbourne - Blizzard Of Ozz
Size: 3.57 Gb ( 3 740 028,00 KBytes ) - DVD-5
Enabled regions: 1, 2, 3, 4, 5, 6, 7, 8

VTS_01 :
Play Length: 00:00:26
Video: PAL 16:9 (720x576) VBR, Auto Pan&Scan, Auto Letterboxed
Audio:
Not specified (LinearPCM, 2 ch)

VTS_02 :
Play Length: 01:11:48
Video: PAL 16:9 (720x576) VBR, Auto Pan&Scan, Auto Letterboxed
Audio:
Not specified, LPCM, Delay = 0 mSec

* Menus Information *

VIDEO_TS Menu
Video:
PAL 16:9 (720x576) VBR
Auto Letterboxed
English Language Unit :
Title Menu

VTS_01 Menu
Video:
PAL 16:9 (720x576) VBR
Auto Letterboxed
Audio:
Not specified (LinearPCM, 2 ch)
English Language Unit :
Root Menu

VTS_02 Menu
Video:
PAL 4:3 (720x576) VBR
English Language Unit :
Root Menu
Общее
Полное имя: D:\Torrents\Download\Ozzy Osbourne - Blizzard Of Ozz\VIDEO_TS\VTS_02_1.VOB
Формат: MPEG-PS
Размер файла: 1024 Мбайт
Продолжительность: 20 м.
Общий поток: 6861 Кбит/сек

Видео
Идентификатор: 224 (0xE0)
Формат: MPEG Video
Версия формата: Version 2
Профиль формата: Main@Main
Параметр BVOP формата: Да
Параметр матрицы формата: По умолчанию
Параметры GOP формата: M=3, N=15
Продолжительность: 20 м.
Вид битрейта: Переменный
Битрейт: 5189 Кбит/сек
Номинальный битрейт: 7000 Кбит/сек
Ширина: 720 пикс.
Высота: 576 пикс.
Соотношение сторон: 16:9
Частота кадров: 25,000 кадр/сек
Стандарт вещания: PAL
Цветовое пространство: YUV
Подвыборка цветности: 4:2:0
Битовая глубина: 8 бит
Тип развёртки: Чересстрочная
Порядок развёртки: Нижнее поле первое
Метод сжатия: С потерями
Бит/(Пиксели*Кадры): 0.500
Размер потока: 774 Мбайт (76%)

Аудио
Идентификатор: 160 (0xA0)
Формат: PCM
Параметр Endianness формата: Big
Параметр Sign формата: Signed
Режим смешивания: DVD-Video
Продолжительность: 20 м.
Вид битрейта: Постоянный
Битрейт: 1536 Кбит/сек
Каналы: 2 канала
Расположение каналов: Front: L R
Частота: 48,0 КГц
Битовая глубина: 16 бит
Размер потока: 229 Мбайт (22%)

Меню






[b]Поделиться:



Вернуться к началу
 Профиль Отправить личное сообщение  
 
   Похожие торренты   Автор   Торрент   Размер 
В этой теме нет новых непрочитанных сообщений. Дом дьявола / The House of the Devil [ужасы, 2009] BDRip 1080p, Avo

salma3

48 | 17

9.72 ГБ

В этой теме нет новых непрочитанных сообщений. Whitesnake - The Purple Album [Japanese Edition] [2015, Hard Rock, Classic Rock, MP3]

salma3

5 | 0

175.45 МБ

В этой теме нет новых непрочитанных сообщений. Большой собачий побег / Ozzy [Мультфильм, 2016] Blu-Ray, Dub [Лицензия]

salma3

25 | 64

17.15 ГБ

В этой теме нет новых непрочитанных сообщений. Большой собачий побег / Ozzy [Мультфильм, 2016] WEB-DL 1080p, Dub [iTunes]

salma3

4960 | 634

3.58 ГБ

В этой теме нет новых непрочитанных сообщений. Большой собачий побег / Ozzy [Мультфильм, 2016] WEB-DL 720p, Dub [iTunes]

salma3

2186 | 276

2.9 ГБ

В этой теме нет новых непрочитанных сообщений. Большой собачий побег / Ozzy [Мультфильм, 2016] BDRip, Dub [Лицензия]

salma3

2814 | 415

1.46 ГБ

В этой теме нет новых непрочитанных сообщений. Большой собачий побег / Ozzy [мультфильм, 2016] BDRip-AVC, Dub [Лицензия]

salma3

775 | 134

2.16 ГБ


Начать новую тему Ответить на тему  [ 1 сообщение ] 




Для Мосгорсуда, Роскомнадзора и рекламодателей:: mosgorsud-torrent[собачка]yandex.ru
cron