Торрент файл
скачать торрент магнет ссылка Добавлен: 08 янв 2012, 03:42
Размер: 3.6 ГБ
Сидеров: 2
Личеров: 6
Автор

СообщениеДобавлено: 08 янв 2012, 03:42 

Не в сети
Супермодератор
Аватара пользователя
Дата регистрации:
22 май 2010, 11:03
Возраст: 31
Спасибо: 7509 / 13
Сообщения: 49940
Ozzy Osbourne - Blizzard Of Ozz - Speak Of The Devil

Формат: DVD5, DVD Video, MPEG2, PCM
Песня: Blizzard Of Ozz - Speak Of The Devil
Жанр: Hard Rock
Продолжительность: 01:11:48
Год выпуска: 2009
Видео: MPEG 2 VIDEO, 720*576 (PAL 16:9), 25.00 fps,~ 5189 kbps avg, 0.500 bit/pixel
Аудио: 48.0 khz, PCM, 2 ch, 1536 kbps avg
Доп. информация: Концерт вIrvine Meadows Amphitheater, Лагуна Хиллс, Калифорния, США. 6 декабря 1982 года.
    Состав

Ozzy Osbourne - vocals
Brad Gillis - guitar
Rudy Sarzo - bass
Tommy Aldridge - drums
Don Airey - keyboard
    Треклист

1. Over the Mountain
2. Mr. Crowley
3. Crazy Train
4. Revelation: Mother Earth
5. Steal Away
6. Suicide Solution
7. Goodbye to Romance
8. I Don't Know
9. Believer
10. Flying High Again
11. Iron Man
12. Children of the Grave
13. Paranoid
Title: Ozzy Osbourne - Blizzard Of Ozz
Size: 3.57 Gb ( 3 740 028,00 KBytes ) - DVD-5
Enabled regions: 1, 2, 3, 4, 5, 6, 7, 8

VTS_01 :
Play Length: 00:00:26
Video: PAL 16:9 (720x576) VBR, Auto Pan&Scan, Auto Letterboxed
Audio:
Not specified (LinearPCM, 2 ch)

VTS_02 :
Play Length: 01:11:48
Video: PAL 16:9 (720x576) VBR, Auto Pan&Scan, Auto Letterboxed
Audio:
Not specified, LPCM, Delay = 0 mSec

* Menus Information *

VIDEO_TS Menu
Video:
PAL 16:9 (720x576) VBR
Auto Letterboxed
English Language Unit :
Title Menu

VTS_01 Menu
Video:
PAL 16:9 (720x576) VBR
Auto Letterboxed
Audio:
Not specified (LinearPCM, 2 ch)
English Language Unit :
Root Menu

VTS_02 Menu
Video:
PAL 4:3 (720x576) VBR
English Language Unit :
Root Menu
Общее
Полное имя: D:\Torrents\Download\Ozzy Osbourne - Blizzard Of Ozz\VIDEO_TS\VTS_02_1.VOB
Формат: MPEG-PS
Размер файла: 1024 Мбайт
Продолжительность: 20 м.
Общий поток: 6861 Кбит/сек

Видео
Идентификатор: 224 (0xE0)
Формат: MPEG Video
Версия формата: Version 2
Профиль формата: Main@Main
Параметр BVOP формата: Да
Параметр матрицы формата: По умолчанию
Параметры GOP формата: M=3, N=15
Продолжительность: 20 м.
Вид битрейта: Переменный
Битрейт: 5189 Кбит/сек
Номинальный битрейт: 7000 Кбит/сек
Ширина: 720 пикс.
Высота: 576 пикс.
Соотношение сторон: 16:9
Частота кадров: 25,000 кадр/сек
Стандарт вещания: PAL
Цветовое пространство: YUV
Подвыборка цветности: 4:2:0
Битовая глубина: 8 бит
Тип развёртки: Чересстрочная
Порядок развёртки: Нижнее поле первое
Метод сжатия: С потерями
Бит/(Пиксели*Кадры): 0.500
Размер потока: 774 Мбайт (76%)

Аудио
Идентификатор: 160 (0xA0)
Формат: PCM
Параметр Endianness формата: Big
Параметр Sign формата: Signed
Режим смешивания: DVD-Video
Продолжительность: 20 м.
Вид битрейта: Постоянный
Битрейт: 1536 Кбит/сек
Каналы: 2 канала
Расположение каналов: Front: L R
Частота: 48,0 КГц
Битовая глубина: 16 бит
Размер потока: 229 Мбайт (22%)

Меню






[b]Поделиться:




реклама партнёра


Вернуться к началу
 Профиль Отправить личное сообщение  
 
   Похожие торренты   Автор   Торрент   Размер 
В этой теме нет новых непрочитанных сообщений. Ozzy Osbourne - The Ultimate Sin [Remastered] (Hard Rock, Heavy Metal. 2014) MP3

Aleksandr.ru

96 | 9

100.38 МБ

В этой теме нет новых непрочитанных сообщений. Ozzy Osbourne - Black Rain [2007, Hard Rock,Heavy Metal, MP3]

PriZraK

0 | 1

186.68 МБ

В этой теме нет новых непрочитанных сообщений. Ozzy Osbourne - Dreamer (Compilation) [2014, Heavy Metal, MP3]

PriZraK

40 | 2

172.45 МБ

В этой теме нет новых непрочитанных сообщений. Ozzy Osbourne - Memoirs of a Madman (Compilation) [2014, Heavy Metal, MP3]

PriZraK

17 | 2

182.98 МБ

В этой теме нет новых непрочитанных сообщений. Devil’s Train - Devil's Train [2012, Hard Rock,Heavy Metal, MP3]

PriZraK

0 | 1

95.19 МБ

В этой теме нет новых непрочитанных сообщений. Devil's Pawn - Damn Dirty Rock [2014, Hard Rock, MP3]

PriZraK

0 | 1

82.09 МБ

В этой теме нет новых непрочитанных сообщений. Black Stone Cherry - Between The Devil & The Deep Blue Sea (Special Edition) [2011, Hard Rock, Southern Rock, Post-Grunge, MP3]

PriZraK

1 | 2

125.19 МБ


Начать новую тему Ответить на тему  [ 1 сообщение ] 




Для Мосгорсуда, Роскомнадзора и рекламодателей:: mosgorsud-torrent[собачка]yandex.ru