Торрент файл
скачать торрент магнет ссылка Добавлен: 08 янв 2012, 03:42
Размер: 4.13 ГБ
Сидеров: 6
Личеров: 13
Автор

СообщениеДобавлено: 08 янв 2012, 03:42 

Не в сети
Супермодератор
Аватара пользователя
Дата регистрации:
22 май 2010, 11:03
Возраст: 31
Спасибо: 7509 / 13
Сообщения: 49940
VA - Лучшее от ELLO Vol. 12


Формат: DVD5, DVD Video, MPEG2, AC3
Песня: Лучшее от ELLO Vol. 12
Жанр: Pop, R'n'B
Продолжительность: 01:58:57
Год выпуска: 2011

Видео: 720х576 (PAL 4:3), 25 fps, MPEG-2, ~4711 kbps avg, 0.454 bit/pixel
Аудио: 48 kHz, АС-3 , 2 ch, 192.00 kbps avg

Доп. информация: Материал взят с канала Ello - который представляет в свою очередь новинки как российской так и зарубежной попсы. Отличный профессиональный музыкальный канал. Здесь можно увидеть как звезд так и совершенно молодых исполнителей. Предлагаю Вашему вниманию ДВЕНАДЦАТУЮ подбороку с этого канала.
01 KAMON!!! – Брюнетка
02 Т. Родригез - Лучше не будет
03 А-Студио и Отпетые мошенники - Сердцем к сердцу
04 Марта - Это любовь была
05 NikitA – Королева
06 Шпильки – Стерва
07 WINTER - Падаю в небо
08 Пающие Трусы - Девочка (к-ф Богини)
09 Марсель - Туда где
10 Беретта - Женщина
11 Ener.G - Вирус любовь
12 Лолита - Часы
13 Кукла - Метросексуал
14 Инь - Ян - Карма
15 В. Яковлева feat. Ж. Фокин - Не забывай
16 Quest Pistols - Я твой наркотик
17 Н. Королева - Ночной город
18 Зара и А. Розенбаум - Любовь на бис
19 Игра Слов feat. Vengerov & Fedoroff - Катерки
20 М. Нитич и С. Пьеха - Что тебе подарить
21 Потап и Настя - Если вдруг
22 Гайтана - Шахтер - чемпион
23 А. Рыбак - Супергерой
24 В. Стронский - Этот город
25 ВИА Гра - Пошёл вон!
26 Ради Славы - Прощай любовь
27 Маленькая Вера - Любовь это...
28 П. Чехов - Лена Смирнова
29 Д. Маликов & В. Пресняков - Мой отец
30 И. Дубцова - Отпусти ее
31 Ar4i feat. Рожден - 02
32 Нюша - Я твой Ангел

Общее
Полное имя: C:\Tfile\luchshee_ot_ello_vol12_[tfile.ru]\VIDEO_TS\VTS_01_1.VOB
Формат: MPEG-PS
Размер файла: 1024 Мбайт
Продолжительность: 28 м.
Общий поток: 5003 Кбит/сек

Видео
Идентификатор: 224 (0xE0)
Формат: MPEG Video
Версия формата: Version 2
Профиль формата: Main@Main
Параметр BVOP формата: Да
Параметр матрицы формата: По умолчанию
Продолжительность: 28 м.
Вид битрейта: Переменный
Битрейт: 4711 Кбит/сек
Номинальный битрейт: 9008 Кбит/сек
Ширина: 720 пикс.
Высота: 576 пикс.
Соотношение сторон: 4:3
Частота кадров: 25,000 кадр/сек
Стандарт вещания: PAL
Цветовое пространство: YUV
Подвыборка цветности: 4:2:0
Битовая глубина: 8 бит
Тип развёртки: Прогрессивная
Метод сжатия: С потерями
Бит/(Пиксели*Кадры): 0.454
Размер потока: 964 Мбайт (94%)

Аудио
Идентификатор: 128 (0x80)
Формат: AC-3
Формат/Информация: Audio Coding 3
Расширение режима: CM (complete main)
Продолжительность: 28 м.
Вид битрейта: Постоянный
Битрейт: 192 Кбит/сек
Канал(ы): 2 канала(ов)
Расположение каналов: Front: L R
Частота: 48,0 КГц
Битовая глубина: 16 бит
Метод сжатия: С потерями
Размер потока: 39,3 Мбайт (4%)












Поделиться:




реклама партнёра


Вернуться к началу
 Профиль Отправить личное сообщение  
 
   Похожие торренты   Автор   Торрент   Размер 
В этой теме нет новых непрочитанных сообщений. Освенцим / Auschwitz [драма, 2011] DVD5, Mvo+Sub [лицензия]

Dracon

57 | 7

3.77 ГБ

В этой теме нет новых непрочитанных сообщений. Уловка .44 / Catch .44 [триллер, драма, криминал, 2011] DVD5, Mvo+Sub

salma3

10 | 8

4.37 ГБ

В этой теме нет новых непрочитанных сообщений. Многоэтажка / Небоскреб смерти / Tower Block [триллер, 2011] DVD5, Mvo+Sub

salma3

9 | 7

4.32 ГБ

В этой теме нет новых непрочитанных сообщений. Маленький убийца / Little Murder [триллер, драма, 2011] DVD5, Mvo [лицензия]

salma3

0 | 2

3.93 ГБ

В этой теме нет новых непрочитанных сообщений. Военные игры / War Games: At the End of the Day [Триллер, боевик, ужасы, 2011] DVD5, Mvo

salma3

15 | 11

4.35 ГБ

В этой теме нет новых непрочитанных сообщений. 12 Рождественских желаний / 12 Wishes of Christmas [фэнтези, комедия, 2011] DVD5, Mvo [лицензия]

salma3

48 | 7

3.92 ГБ

В этой теме нет новых непрочитанных сообщений. Последний час Земли / Earth's Final Hours [Фантастика, 2011] DVD5, Mvo [Лицензия]

salma3

41 | 14

4.01 ГБ


Начать новую тему Ответить на тему  [ 1 сообщение ] 




Для Мосгорсуда, Роскомнадзора и рекламодателей:: mosgorsud-torrent[собачка]yandex.ru