Торрент файл
скачать торрент магнет ссылка Добавлен: 08 янв 2012, 03:40
Размер: 4.09 ГБ
Сидеров: 1
Личеров: 7
Автор

СообщениеДобавлено: 08 янв 2012, 03:40 

Не в сети
Супермодератор
Аватара пользователя
Дата регистрации:
22 май 2010, 11:03
Возраст: 31
Спасибо: 7508 / 13
Сообщения: 49940
Guns N' Roses - Live In St. Louis


Формат: DVD5, DVD Video, MPEG2, AC3
Песня: Live In St. Louis
Жанр: Hard-Rock
Продолжительность: 02:05:45
Год выпуска: 1991

Видео: 720х576 (PAL 4:3), 25 fps, MPEG-2, ~4132 kbps avg, 0.399 bit/pixel
Аудио: 48 kHz, АС-3 , 2 ch, 224.00 kbps avg

Доп. информация: В 1991 GUNS N’ ROSES были на невероятном подъёме, а Эксл Роуз, похоже, в наиболее параноидальном состоянии. Он никогда не отличался примерным поведением и кротким нравом, но в Сэнт-Луисе, похоже, «перегнул палку». Примерно к середине концерта в этом американском городе у Эксла совсем «поехала крыша», и он устроил разборки с охранниками, которые обеспечивали порядок на концерте – ему не понравилось, что фэны фотографируют его. Вскоре Эксл, видимо, рассудил, что если хочешь что-то сделать хорошо – сделай это сам, и, прыгнув в толпу, отобрал у фэна фотоаппарат, при этом ещё и двинув ему пару раз по физиономии. Затем, Эксл заявил, что уходит домой, и покинул сцену. К этому моменту обстановка в зале накалилась до предела и остаток вечера публика провела, круша всё заведение, включая и оборудование GUNS N’ ROSES.

01. Perfect Crime
02. Mr Brownstone
03. Live And Let Die
04. Dust N' Bones
05. You Could Be Mine
06. Patience
07. Double Talkin' Jive
08. November Rain
09. Welcome To The Jungle
10. Civil War
11. 14 Years
12. Band Intro/Drum Solo
13. Guitar Solo/Godfather Theme
14. Rocket Queen
15. Axl Jumps Into The Crowd

Bonus Clip
You Could Be Mine

Общее
Полное имя: C:\Tfile\guns_n_roses_live_in_st_louis_[tfile.ru]\VIDEO_TS\VTS_01_1.VOB
Формат: MPEG-PS
Размер файла: 1024 Мбайт
Продолжительность: 32 м.
Общий поток: 4444 Кбит/сек

Видео
Идентификатор: 224 (0xE0)
Формат: MPEG Video
Версия формата: Version 2
Профиль формата: Main@Main
Параметр BVOP формата: Да
Параметр матрицы формата: По умолчанию
Параметры GOP формата: M=3, N=15
Продолжительность: 32 м.
Вид битрейта: Переменный
Битрейт: 4132 Кбит/сек
Номинальный битрейт: 8000 Кбит/сек
Ширина: 720 пикс.
Высота: 576 пикс.
Соотношение сторон: 4:3
Частота кадров: 25,000 кадр/сек
Стандарт вещания: PAL
Цветовое пространство: YUV
Подвыборка цветности: 4:2:0
Битовая глубина: 8 бит
Тип развёртки: Прогрессивная
Метод сжатия: С потерями
Бит/(Пиксели*Кадры): 0.399
Размер потока: 952 Мбайт (93%)

Аудио
Идентификатор: 128 (0x80)
Формат: AC-3
Формат/Информация: Audio Coding 3
Расширение режима: CM (complete main)
Продолжительность: 32 м.
Вид битрейта: Постоянный
Битрейт: 224 Кбит/сек
Канал(ы): 2 канала(ов)
Расположение каналов: Front: L R
Частота: 48,0 КГц
Битовая глубина: 16 бит
Метод сжатия: С потерями
Размер потока: 51,6 Мбайт (5%)












Поделиться:




реклама партнёра


Вернуться к началу
 Профиль Отправить личное сообщение  
 
   Похожие торренты   Автор   Торрент   Размер 
В этой теме нет новых непрочитанных сообщений. Guns N’ Roses - Roses N’ Guns [2013, Hard Rock, Glam Rock, Heavy Metal, MP3]

PriZraK

9 | 1

114.58 МБ

В этой теме нет новых непрочитанных сообщений. Thunder and Roses - King of the Black Sunrise (1969) [1998, Hard Rock, Psychedelic Rock, MP3]

PriZraK

0 | 1

83.76 МБ

В этой теме нет новых непрочитанных сообщений. The New Roses - Without A Trace [2013, Hard Rock, MP3]

PriZraK

0 | 1

102.15 МБ

В этой теме нет новых непрочитанных сообщений. Tracii Guns' League of Gentlemen - The First Record [2013,Classic Rock,Hard Rock,MP3]

PriZraK

0 | 1

157.7 МБ

В этой теме нет новых непрочитанных сообщений. VA - Classic Rock #119: Sons Of The Guns III [2008, Hard Rock, MP3]

PriZraK

0 | 1

124.56 МБ

В этой теме нет новых непрочитанных сообщений. Guns of Glory - On The Way To Sin City [2013, Hard Rock, MP3]

PriZraK

0 | 1

68.25 МБ

В этой теме нет новых непрочитанных сообщений. Guns Of Nevada - Songs In The Key Of Whiskey [2012, Hard Rock, MP3]

PriZraK

3 | 1

78.82 МБ


Начать новую тему Ответить на тему  [ 1 сообщение ] 




Для Мосгорсуда, Роскомнадзора и рекламодателей:: mosgorsud-torrent[собачка]yandex.ru