Торрент файл
скачать торрент магнет ссылка Добавлен: 08 янв 2012, 03:40
Размер: 3.42 ГБ
Сидеров: 2
Личеров: 5
Автор

СообщениеДобавлено: 08 янв 2012, 03:40 

Не в сети
Супермодератор
Аватара пользователя
Дата регистрации:
22 май 2010, 11:03
Возраст: 32
Спасибо: 7690 / 13
Сообщения: 49871
Lady Gaga - The Fame Monster (The Videos)


Формат: DVD5, DVD Video, MPEG2, AC3
Песня: The Fame Monster (The Videos)
Жанр: Рор
Продолжительность: 01:09:52
Год выпуска: 2010

Видео: 720х480 (NTSC 4:3), 29,970 fps, MPEG-2, ~6990 kbps avg, 0.675 bit/pixel
Аудио: 48 kHz, AC-3 , 2 ch (Front: L R), 192.00 kbps avg

Доп. информация: Обладательница пяти премий Грэмми, 30 премий MTV, премии Эмми, исполняющая танцевальную поп-музыку, в которой соединились влияние глэм-рока, диско, электро, R&B, Мадонны, Майкла Джексона. Её дебютный альбом The Fame (200 стал международным хитом. Сингл из него «Just Dance» летом 2008 года возглавил хит-парады США и Канады, а 11 января 2009 года вышел на первое место в Великобритании. По состоянию на октябрь 2011 года продажи синглов и альбомов Леди Гаги превысили 100 миллионов. Леди Гага (Стефани Джерманотта) названа в честь своей умершей тёти Джоанны Стефани Джерманотта.

01 JUST DANCE
02 BEAUTIFUL, DIRTY, RICH
03 POKER FACE
04 EH, EH (NOTHING ELSE I CAN SAY)
05 LOVE GAME
06 PAPARAZZI
07 BAD ROMANCE
08 TELEPHONE (FEATURING BEYONCÃ
09 ALEJANDRO

BONUS
01 THE FAME (MINI MOVIE)
02 CHILIN' (WALE FEAT. LADY GAGA)
03 VIDEO PHONE (BEYONCÃ FEAT. LADY GAGA)
04 TELEPHONE (BEHIND THE SCENES)
05 BAD ROMANCE (BEHIND THE SCENES)

Общее
Полное имяC:\Tfile\lady_gaga_the_fame_monster_[tfile.ru]\VIDEO_TS\VTS_01_1.VOB
Формат: MPEG-PS
Размер файла: 1024 Мбайт
Продолжительность: 19 м.
Общий поток: 7328 Кбит/сек

Видео
Идентификатор: 224 (0xE0)
Формат: MPEG Video
Версия формата: Version 2
Профиль формата: Main@Main
Параметр BVOP формата: Да
Параметр матрицы формата: По умолчанию
Параметры GOP формата: M=3, N=15
Продолжительность: 19 м.
Вид битрейта: Переменный
Битрейт: 6990 Кбит/сек
Номинальный битрейт: 9586 Кбит/сек
Ширина: 720 пикс.
Высота: 480 пикс.
Соотношение сторон: 4:3
Частота кадров: 29,970 кадр/сек
Стандарт вещания: NTSC
Цветовое пространство: YUV
Подвыборка цветности: 4:2:0
Битовая глубина: 8 бит
Тип развёртки: Прогрессивная
Порядок развёртки: Нижнее поле первое
Метод сжатия: С потерями
Бит/(Пиксели*Кадры): 0.675
Размер потока: 977 Мбайт (95%)

Аудио
Идентификатор: 128 (0x80)
Формат: AC-3
Формат/Информация: Audio Coding 3
Расширение режима: CM (complete main)
Продолжительность: 19 м.
Вид битрейта: Постоянный
Битрейт: 192 Кбит/сек
Канал(ы): 2 канала(ов)
Расположение каналов: Front: L R
Частота: 48,0 КГц
Битовая глубина: 16 бит
Метод сжатия: С потерями
Задержка видео: -33 мс.
Размер потока: 26,8 Мбайт (3%)












Поделиться:




реклама партнёра


Вернуться к началу
 Профиль Отправить личное сообщение  
 
   Похожие торренты   Автор   Торрент   Размер 
В этой теме нет новых непрочитанных сообщений. Hustler - Это не Леди Гага, это пародия / This Ain't Lady Gaga, XXX This Is A Parody (2011) DVDRip-AVC

salma3

6 | 1

1.35 ГБ

В этой теме нет новых непрочитанных сообщений. [DaneJones.com / SexyHub.com] Lady Bug - Pretty young lady covered in cum (25.10.2017) [All Sex]

salma3

38 | 13

323.7 МБ

В этой теме нет новых непрочитанных сообщений. [PixAndVideo.com / 21Sextury.com] Lady Dee (A Nice Lady) [10.11.2017 г., Brunette, Natural Tits, Tatooed, Oral, Hardcore, Facial]

salma3

10 | 3

280.81 МБ

В этой теме нет новых непрочитанных сообщений. [PixAndVideo.com / 21Sextury.com] Lady Dee (A Nice Lady) [10.11.2017 г., Brunette, Natural Tits, Tatooed, Oral, Hardcore, Facial, 720p]

salma3

4 | 1

429.79 МБ

В этой теме нет новых непрочитанных сообщений. [PixAndVideo.com / 21Sextury.com] Lady Dee (A Nice Lady) [10.11.2017 г., Brunette, Natural Tits, Tatooed, Oral, Hardcore, Facial, 1080p]

salma3

0 | 0

931.07 МБ

В этой теме нет новых непрочитанных сообщений. [TuVenganza.com / PornDoePremium.com] Lady Cruz - Sassy Colombian babe Lady Cruz takes revenge and gets cum on tits (2017-10-11, All Sex, Blowjobs, 480p]

salma3

14 | 4

553.19 МБ

В этой теме нет новых непрочитанных сообщений. [ImmoralLive.com / MyXXXPass.com] Lady Dee (Lady Dee Gets Fucked / 11.11.2017) [2017 г., Cumshot,Toys,Vibrator,Blowjob,Deepthroat,Cum on tits,Cum on Pussy,Doggystyle,POV,Pussy Licking,Shaved,Tattooed, 1080p]

salma3

13 | 4

2.65 ГБ


Начать новую тему Ответить на тему  [ 1 сообщение ] 




Для Мосгорсуда, Роскомнадзора и рекламодателей:: mosgorsud-torrent[собачка]yandex.ru