Торрент файл
скачать торрент магнет ссылка Добавлен: 08 янв 2012, 03:40
Размер: 3.42 ГБ
Сидеров: 2
Личеров: 5
Автор

СообщениеДобавлено: 08 янв 2012, 03:40 

Не в сети
Супермодератор
Аватара пользователя
Дата регистрации:
22 май 2010, 11:03
Возраст: 37
Спасибо: 7939 / 13
Сообщения: 49828
Lady Gaga - The Fame Monster (The Videos)


Формат: DVD5, DVD Video, MPEG2, AC3
Песня: The Fame Monster (The Videos)
Жанр: Рор
Продолжительность: 01:09:52
Год выпуска: 2010

Видео: 720х480 (NTSC 4:3), 29,970 fps, MPEG-2, ~6990 kbps avg, 0.675 bit/pixel
Аудио: 48 kHz, AC-3 , 2 ch (Front: L R), 192.00 kbps avg

Доп. информация: Обладательница пяти премий Грэмми, 30 премий MTV, премии Эмми, исполняющая танцевальную поп-музыку, в которой соединились влияние глэм-рока, диско, электро, R&B, Мадонны, Майкла Джексона. Её дебютный альбом The Fame (200 стал международным хитом. Сингл из него «Just Dance» летом 2008 года возглавил хит-парады США и Канады, а 11 января 2009 года вышел на первое место в Великобритании. По состоянию на октябрь 2011 года продажи синглов и альбомов Леди Гаги превысили 100 миллионов. Леди Гага (Стефани Джерманотта) названа в честь своей умершей тёти Джоанны Стефани Джерманотта.

01 JUST DANCE
02 BEAUTIFUL, DIRTY, RICH
03 POKER FACE
04 EH, EH (NOTHING ELSE I CAN SAY)
05 LOVE GAME
06 PAPARAZZI
07 BAD ROMANCE
08 TELEPHONE (FEATURING BEYONCÃ
09 ALEJANDRO

BONUS
01 THE FAME (MINI MOVIE)
02 CHILIN' (WALE FEAT. LADY GAGA)
03 VIDEO PHONE (BEYONCÃ FEAT. LADY GAGA)
04 TELEPHONE (BEHIND THE SCENES)
05 BAD ROMANCE (BEHIND THE SCENES)

Общее
Полное имяC:\Tfile\lady_gaga_the_fame_monster_[tfile.ru]\VIDEO_TS\VTS_01_1.VOB
Формат: MPEG-PS
Размер файла: 1024 Мбайт
Продолжительность: 19 м.
Общий поток: 7328 Кбит/сек

Видео
Идентификатор: 224 (0xE0)
Формат: MPEG Video
Версия формата: Version 2
Профиль формата: Main@Main
Параметр BVOP формата: Да
Параметр матрицы формата: По умолчанию
Параметры GOP формата: M=3, N=15
Продолжительность: 19 м.
Вид битрейта: Переменный
Битрейт: 6990 Кбит/сек
Номинальный битрейт: 9586 Кбит/сек
Ширина: 720 пикс.
Высота: 480 пикс.
Соотношение сторон: 4:3
Частота кадров: 29,970 кадр/сек
Стандарт вещания: NTSC
Цветовое пространство: YUV
Подвыборка цветности: 4:2:0
Битовая глубина: 8 бит
Тип развёртки: Прогрессивная
Порядок развёртки: Нижнее поле первое
Метод сжатия: С потерями
Бит/(Пиксели*Кадры): 0.675
Размер потока: 977 Мбайт (95%)

Аудио
Идентификатор: 128 (0x80)
Формат: AC-3
Формат/Информация: Audio Coding 3
Расширение режима: CM (complete main)
Продолжительность: 19 м.
Вид битрейта: Постоянный
Битрейт: 192 Кбит/сек
Канал(ы): 2 канала(ов)
Расположение каналов: Front: L R
Частота: 48,0 КГц
Битовая глубина: 16 бит
Метод сжатия: С потерями
Задержка видео: -33 мс.
Размер потока: 26,8 Мбайт (3%)












Поделиться:



Вернуться к началу
 Профиль Отправить личное сообщение  
 
   Похожие торренты   Автор   Торрент   Размер 
В этой теме нет новых непрочитанных сообщений. Cody Lane - Anal Videos (Pack / 34 videos) [Anal Sex, DP, Group Sex, Pornstar, Brunette, DVDRip]

salma3

5 | 2

20.42 ГБ

В этой теме нет новых непрочитанных сообщений. Madison Parker - Famous Hungarian Whore [160 Videos] (2007-2010) DVDRip | WEB-DL

zorgi

0 | 3

61.3 ГБ

В этой теме нет новых непрочитанных сообщений. [MonstersOfCock.com / BangBros.com] Kristy Black - Monster Cock Vs Monster Ass (20.02.2022) [Anal, All Sex]

zorgi

2 | 0

462.78 МБ

В этой теме нет новых непрочитанных сообщений. Видео с мачехой 2 / Stepmom Videos 2 (2015) DVDRip

zorgi

45 | 5

2.05 ГБ

В этой теме нет новых непрочитанных сообщений. Горячие и сердитые / Hot And Mean [7 Videos] (2021) WEB-DLRip

zorgi

4 | 1

4.08 ГБ

В этой теме нет новых непрочитанных сообщений. Phoenix Marie [9 Videos] (2009-2014) WEB-DLRip

zorgi

0 | 0

4.76 ГБ

В этой теме нет новых непрочитанных сообщений. Elisabeth King (52 ролика) (aka Gina Ladek or Rosalia Vinczem or Alina Kolpa or Miriam Tiende or uncredited, Lady Amour, Lady Sex, Liza Sex, Beth Daylor, Elisa Ferrante, Elisabeth King, Elizabeth, Gabriela, Mercedes, Tunde) MegaPack / Elisa

salma3

0 | 1

13.54 ГБ


Начать новую тему Ответить на тему  [ 1 сообщение ] 




Для Мосгорсуда, Роскомнадзора и рекламодателей:: rstracker[собака]yandex.ru
cron