Торрент файл
скачать торрент магнет ссылка Добавлен: 08 янв 2012, 03:40
Размер: 4.35 ГБ
Сидеров: 4
Личеров: 10
Автор

СообщениеДобавлено: 08 янв 2012, 03:40 

Не в сети
Супермодератор
Аватара пользователя
Дата регистрации:
22 май 2010, 11:03
Возраст: 32
Спасибо: 7690 / 13
Сообщения: 49871
Iggy Pop - Live At The Avenue B


Формат: DVD5, DVD Video, MPEG2, AC3, DTS
Песня: Live At The Avenue B
Жанр: Alternative Rock, Punk Rock
Продолжительность: 01:28:39
Год выпуска: 1999

Видео: 720х576 (PAL 4:3), 25 fps, MPEG-2, ~4937 kbps avg, 0.476 bit/pixel
Аудио #1: 48 kHz, АС-3 , 2 ch, 448.00 kbps avg
Аудио #2: 48 kHz, АС-3 , 6 ch (Front: L C R, Side: L R, LFE), 448.00 kbps avg
Аудио #3: 48 kHz, DTS , 6 ch (Front: L C R, Side: L R, LFE), 755.00 kbps avg

Доп. информация: Начинается концерт немного меланхолично - заметно постаревший Игги появляется в темноте, под медленные звуки скрипки рассказывает что-то несколько грустное, затем стоя на коленях начинает петь, аккомпанируя себе акустической гитарой. Немного неожиданно, не привычно, слегка скучновато, но этим самым моментально приковывает взгляд, заставляя ожидать что будет дальше. Это продолжается всего пару минут, после чего Игги, будто разминая ноги (он же сидел неподвижно целых четыре минуты!!) начинает шугать музыкантов по всей сцене, грозясь врезаться в кого нибудь из них в своем безумном танце. Все нормально, перед нами все тот же Игги, опасения миновали.

1. No Shit
2. Nazi Girlfriend
3. Espanol
4. Raw Power
5. Search And Destroy
6. Shakin' All Over
7. Corruption
8. Real Wild One
9. I Wanna Be Your Dog
10. I Felt The Luxury
11. Home
12. Lust For Life
13. The Passenger
14. Cold Metal
15. Avenue B
16. T.V. Eye
17. I Got A Right
18. No Fun
19. Death Trip
20. Sixteen
21. Louie, Louie

Общее
Полное имя: C:\Tfile\ iggy_pop_live_[tfile.ru] \VTS_01_1.VOB
Формат: MPEG-PS
Размер файла: 1024 Мбайт
Продолжительность: 21 м.
Общий поток: 6721 Кбит/сек

Видео
Идентификатор: 224 (0xE0)
Формат: MPEG Video
Версия формата: Version 2
Профиль формата: Main@Main
Параметр BVOP формата: Да
Параметр матрицы формата: По умолчанию
Параметры GOP формата: M=2, N=12
Продолжительность: 21 м.
Вид битрейта: Переменный
Битрейт: 4937 Кбит/сек
Номинальный битрейт: 9800 Кбит/сек
Ширина: 720 пикс.
Высота: 576 пикс.
Соотношение сторон: 4:3
Частота кадров: 25,000 кадр/сек
Стандарт вещания: PAL
Цветовое пространство: YUV
Подвыборка цветности: 4:2:0
Битовая глубина: 8 бит
Тип развёртки: Чересстрочная
Порядок развёртки: Нижнее поле первое
Метод сжатия: С потерями
Бит/(Пиксели*Кадры): 0.476
Размер потока: 752 Мбайт (73%)

Аудио #1
Идентификатор: 128 (0x80)
Формат: AC-3
Формат/Информация: Audio Coding 3
Расширение режима: CM (complete main)
Продолжительность: 21 м.
Вид битрейта: Постоянный
Битрейт: 448 Кбит/сек
Канал(ы): 2 канала(ов)
Расположение каналов: Front: L R
Частота: 48,0 КГц
Битовая глубина: 16 бит
Метод сжатия: С потерями
Размер потока: 68,2 Мбайт (7%)

Аудио #2
Идентификатор: 129 (0x81)
Формат: AC-3
Формат/Информация: Audio Coding 3
Расширение режима: CM (complete main)
Продолжительность: 21 м.
Вид битрейта: Постоянный
Битрейт: 448 Кбит/сек
Канал(ы): 6 канала(ов)
Расположение каналов: Front: L C R, Side: L R, LFE
Частота: 48,0 КГц
Битовая глубина: 16 бит
Метод сжатия: С потерями
Размер потока: 68,2 Мбайт (7%)

Аудио #3
Идентификатор: 138 (0x8A)
Формат: DTS
Формат/Информация: Digital Theater Systems
Продолжительность: 21 м.
Вид битрейта: Постоянный
Битрейт: 755 Кбит/сек
Канал(ы): 6 канала(ов)
Расположение каналов: Front: L C R, Side: L R, LFE
Частота: 48,0 КГц
Битовая глубина: 16 бит
Метод сжатия: С потерями
Размер потока: 115 Мбайт (11%)













Поделиться:




реклама партнёра


Вернуться к началу
 Профиль Отправить личное сообщение  
 
   Похожие торренты   Автор   Торрент   Размер 
В этой теме нет новых непрочитанных сообщений. VA - Летний марафон № 187 (Время Rock'n'Roll Новинок) [2015, Indie, Rock, Punk, Alternative, HDTVRip 1080p]

Hestin

21 | 3

3.19 ГБ

В этой теме нет новых непрочитанных сообщений. Чичерина (Юлия Чичерина) - Дискография [2000 - 2012, Rock , Alternative Rock , Pop Rock, MP3]

salma3

1 | 2

3.05 ГБ

В этой теме нет новых непрочитанных сообщений. VA - Dark Side of the 80s [2015, Alternative Rock, New Wave, Indie Rock, MP3]

salma3

2 | 0

361.1 МБ

В этой теме нет новых непрочитанных сообщений. Muse - Drones [2015, Alternative Rock, Progressive Rock, MP3]

salma3

0 | 0

121.37 МБ

В этой теме нет новых непрочитанных сообщений. Сборник - Русский Рок Золотой [2014, Rock, Classic Rock, Soft Rock, Hard Rock, MP3]

Nickolas3435

457 | 26

935.39 МБ

В этой теме нет новых непрочитанных сообщений. КняZz - Предвестник [2015, Punk Rock, MP3]

salma3

0 | 0

93.84 МБ

В этой теме нет новых непрочитанных сообщений. Панк рок каверы 5 [2015, Punk, Rock, Covers, Mp3]

salma3

0 | 0

724.44 МБ


Начать новую тему Ответить на тему  [ 1 сообщение ] 




Для Мосгорсуда, Роскомнадзора и рекламодателей:: mosgorsud-torrent[собачка]yandex.ru