Торрент файл
скачать торрент магнет ссылка Добавлен: 08 янв 2012, 03:39
Размер: 2.29 ГБ
Сидеров: 0
Личеров: 5
Автор

СообщениеДобавлено: 08 янв 2012, 03:39 

Не в сети
Супермодератор
Аватара пользователя
Дата регистрации:
22 май 2010, 11:03
Возраст: 37
Спасибо: 7939 / 13
Сообщения: 49828
Lady Gaga - Live at Good Morning America


Формат: DVD5, DVD Video, MPEG2, AC3
Песня: Live at Good Morning America
Жанр: Pop, Dance
Продолжительность: 00:36:05
Год выпуска: 2011

Видео: 720х576 (PAL 16:9), 25,000 fps, MPEG-2, ~9008 kbps avg, 0.869 bit/pixel
Аудио: 48 kHz, AC-3 , 2 ch (Front: L R), 192.00 kbps avg

Доп. информация: Небольшое выступление Lady Gaga на телешоу Good Morning America 2011-05-27, Также в записи представлено интервью взятое у Lady Gaga.

Треклист:
01. Bad Romance
02. Interview
03. The Edge of Glory
03. Judas
04. Born This Way
05. Hair


Общее
Полное имя: C:\Tfile\lady_gaga_live_at_good_morning_america_[tfile.ru]\VIDEO_TS\VTS_01_1.VOB
Формат: MPEG-PS
Размер файла: 1024 Мбайт
Продолжительность: 15 м.
Общий поток: 8989 Кбит/сек

Видео
Идентификатор: 224 (0xE0)
Формат: MPEG Video
Версия формата: Version 2
Профиль формата: Main@Main
Параметр BVOP формата: Да
Параметр матрицы формата: По умолчанию
Параметры GOP формата: M=3, N=13
Продолжительность: 15 м.
Вид битрейта: Переменный
Битрейт: 9008 Кбит/сек
Ширина: 720 пикс.
Высота: 576 пикс.
Соотношение сторон: 16:9
Частота кадров: 25,000 кадр/сек
Стандарт вещания: PAL
Цветовое пространство: YUV
Подвыборка цветности: 4:2:0
Битовая глубина: 8 бит
Тип развёртки: Прогрессивная
Метод сжатия: С потерями
Бит/(Пиксели*Кадры): 0.869
Размер потока: 982 Мбайт (96%)

Аудио
Идентификатор: 128 (0x80)
Формат: AC-3
Формат/Информация: Audio Coding 3
Расширение режима: CM (complete main)
Продолжительность: 15 м.
Вид битрейта: Постоянный
Битрейт: 192 Кбит/сек
Канал(ы): 2 канала(ов)
Расположение каналов: Front: L R
Частота: 48,0 КГц
Битовая глубина: 16 бит
Метод сжатия: С потерями
Размер потока: 21,9 Мбайт (2%)











Поделиться:



Вернуться к началу
 Профиль Отправить личное сообщение  
 
   Похожие торренты   Автор   Торрент   Размер 
В этой теме нет новых непрочитанных сообщений. Naughty America - Я имею жену 13 / Я женатый 13 / I Have A Wife 13 (2011) DVDRip

zorgi

4 | 0

1.44 ГБ

В этой теме нет новых непрочитанных сообщений. VA - Record Super Chart / 14.08.2021 [2021 г., Dance, Pop, MP3]

zorgi

9 | 1

230.7 МБ

В этой теме нет новых непрочитанных сообщений. Elisabeth King (52 ролика) (aka Gina Ladek or Rosalia Vinczem or Alina Kolpa or Miriam Tiende or uncredited, Lady Amour, Lady Sex, Liza Sex, Beth Daylor, Elisa Ferrante, Elisabeth King, Elizabeth, Gabriela, Mercedes, Tunde) MegaPack / Elisa

salma3

0 | 1

13.54 ГБ

В этой теме нет новых непрочитанных сообщений. Lilit A - Morning Exercise 2 (2020) WEB-DL 1080p

zorgi

105 | 11

388.1 МБ

В этой теме нет новых непрочитанных сообщений. Rachel Starr & Rachel Roxxx - A Swinging Good Time (2011) SiteRip

zorgi

11 | 1

438.8 МБ

В этой теме нет новых непрочитанных сообщений. [JoyMii.com] Mimi Cica - Morning Suprise (11.02.2022) [All Sex]

zorgi

0 | 0

515.98 МБ

В этой теме нет новых непрочитанных сообщений. Molly Quinn - Morning Glory (2018) WEB-DL 720p

zorgi

11 | 0

410 МБ


Начать новую тему Ответить на тему  [ 1 сообщение ] 




Для Мосгорсуда, Роскомнадзора и рекламодателей:: rstracker[собака]yandex.ru
cron