Торрент файл
скачать торрент магнет ссылка Добавлен: 08 янв 2012, 03:38
Размер: 4.36 ГБ
Сидеров: 4
Личеров: 6
Автор

СообщениеДобавлено: 08 янв 2012, 03:38 

Не в сети
Супермодератор
Аватара пользователя
Дата регистрации:
22 май 2010, 11:03
Возраст: 33
Спасибо: 7726 / 13
Сообщения: 49847
Slayer - War At The Warfield

Формат: DVD5 (сжатый), DVD Video, MPEG2, AC3
Песня: War At The Warfield
Жанр: Thrash Metal
Продолжительность: 01:30:28
Год выпуска: 2003
Видео: MPEG 2 VIDEO, 720*576 ( PAL 16:9), 25.00 fps,~ 6182 kbps avg, 0.596 bit/pixel
Аудио: 48,0 khz, AC 3, 6 ch, 448 kbps avg
Доп. информация: Концерт в Сан-Франциско, США. 7 декабря 2001 года.

Удалил: предостережение, заставку, fans rule, bloodline video, фотогалерею. AC -3 2 ch. Видео сжато на 4%

Состав

Tom Araya - bass, vocals
Jeff Hannemann - guitars
Kerry King - guitars
Paul Bostaph - drums

Треклист

1. Disciple
2. War Ensemble
3. Stain Of Mind
4. New Faith
5. Postmortem
6. Raining Blood
7. Hell Awaits
8. Here Comes The Pain
9. Die By The Sword
10. Dittohead
11. Bloodline
12. God Send Death
13. Dead Skin Mask
14. Seasons In The Abyss
15. Captor Of Sin
16. Mandatory Suicide
17. Chemical Warfare
18. South Of Heaven
19. Angel Of Death
Общее
Полное имя: D:\Video\Slayer - War At The Warfield\VIDEO_TS\VTS_01_1.VOB
Формат: MPEG-PS
Размер файла: 1024 Мбайт
Продолжительность: 21 м.
Общий поток: 6765 Кбит/сек

Видео
Идентификатор: 224 (0xE0)
Формат: MPEG Video
Версия формата: Version 2
Профиль формата: Main@Main
Параметр BVOP формата: Да
Параметр матрицы формата: По умолчанию
Продолжительность: 21 м.
Вид битрейта: Переменный
Битрейт: 6182 Кбит/сек
Номинальный битрейт: 9800 Кбит/сек
Ширина: 720 пикс.
Высота: 576 пикс.
Соотношение сторон: 16:9
Частота кадров: 25,000 кадр/сек
Стандарт вещания: PAL
Цветовое пространство: YUV
Подвыборка цветности: 4:2:0
Битовая глубина: 8 бит
Тип развёртки: Чересстрочная
Порядок развёртки: Верхнее поле первое
Метод сжатия: С потерями
Бит/(Пиксели*Кадры): 0.596
Размер потока: 936 Мбайт (91%)

Аудио
Идентификатор: 129 (0x81)
Формат: AC-3
Формат/Информация: Audio Coding 3
Расширение режима: CM (complete main)
Продолжительность: 21 м.
Вид битрейта: Постоянный
Битрейт: 448 Кбит/сек
Каналы: 6 каналов
Расположение каналов: Front: L C R, Side: L R, LFE
Частота: 48,0 КГц
Битовая глубина: 16 бит
Метод сжатия: С потерями
Задержка видео: 16 мс.
Размер потока: 67,8 Мбайт (7%)

Меню








[b]Поделиться:



Вернуться к началу
 Профиль Отправить личное сообщение  
 
   Похожие торренты   Автор   Торрент   Размер 
В этой теме нет новых непрочитанных сообщений. Demon Slayer 3 [17.5.17] [RPG, Strategy, Fantasy, MMO, 2015] [Лицензия]

holokofi

0 | 0

542.12 МБ

В этой теме нет новых непрочитанных сообщений. Бурый кролик / The Brown Bunny [Драма, 2003] DVD5, Mvo

salma3

2 | 3

4.36 ГБ

В этой теме нет новых непрочитанных сообщений. За гранью времен / Beyond the Limits [ужасы, триллер, 2003] DVD5, Mvo

salma3

19 | 6

3.73 ГБ

В этой теме нет новых непрочитанных сообщений. Stacked Racks (Anton Slayer, Cal Vista (Metro)) [2017 г., All Sex Big Boobs Big Butt, WEB-DL]

salma3

8 | 3

2 ГБ

В этой теме нет новых непрочитанных сообщений. Баффи - истребительница вампиров / Buffy the Vampire Slayer [Ужасы, Комедия, Боевик, 1992] BDRip 720p, Mvo+Avo+Sub

salma3

58 | 16

4.37 ГБ

В этой теме нет новых непрочитанных сообщений. No Man's Land 44 / Земля без мужчин 44 (Anton Slayer, Video Team) [2008 г., All Girl / Lesbian, Threesome, Big tits., HDRip]

salma3

0 | 1

1.26 ГБ

В этой теме нет новых непрочитанных сообщений. 44 минуты: Бойня в северном Голливуде / 44 Minutes: The North Hollywood Shoot-Out [боевик, драма, криминал, 2003] DVD5, Mvo

salma3

35 | 11

3.88 ГБ


Начать новую тему Ответить на тему  [ 1 сообщение ] 




Для Мосгорсуда, Роскомнадзора и рекламодателей:: mosgorsud-torrent[собачка]yandex.ru
cron