Торрент файл
скачать торрент магнет ссылка Добавлен: 08 янв 2012, 03:38
Размер: 3.74 ГБ
Сидеров: 1
Личеров: 7
Автор

СообщениеДобавлено: 08 янв 2012, 03:38 

Не в сети
Супермодератор
Аватара пользователя
Дата регистрации:
22 май 2010, 11:03
Возраст: 37
Спасибо: 7939 / 13
Сообщения: 49828
Tarja Turunen - Christmas Concert

Формат: DVD5, DVD Video, MPEG2, MP2
Песня: Christmas Concert
Жанр: Classical
Продолжительность: 01:39:11
Год выпуска: 2008
Видео: MPEG 2 VIDEO, 720*576 ( PAL 4:3), 25.00 fps, ~4882 kbps avg, 0,471 bit/pixel
Аудио: 48.0 khz, MPEG AUDIO (version 1) (layer 2), 2 ch, 224 kbps avg
Доп. информация: Рождественский концерт в Сибелиус Холл, Лахти, Финляндия. 12 декабря 2006 года. Видеоклипы, фотогалерея.
    Треклист
01.Kuin Henkays Ikuisuudesta
02.Walking In The Air
03.Happy Chrismas (War Is Over) (cover John Lennon)
04.Happy New Year (cover ABBA)
05.Jo Joutuu Ilta
06.Ave Maria
07.The Eyes Of A Child
08.Sydameeni Joulun Teen
09.When A Child Is Born
10.Magnificat Anima Mea: Quia Respexit (J.C.Bach)
11.Varpunen Jouluaamuna
12.En Esti Valtaa, Loistoa
13.You Would Have Love This
14.Walking In The Air (hard version)
15.Jouluyo, Juhlayo
    Видеоклипы
1. En etsi valtaa
2. Kun joulu on
3. Leaving You For Me
4. Walk Alone (art version)
5. Walk Alone (sing version
Общее
Полное имя: D:\Video\Tarja Turunen - Shristmas Concert\VIDEO_TS\VTS_01_1.VOB
Формат: MPEG-PS
Размер файла: 1024 Мбайт
Продолжительность: 27 м.
Общий поток: 5210 Кбит/сек

Видео
Идентификатор: 224 (0xE0)
Формат: MPEG Video
Версия формата: Version 2
Профиль формата: Main@Main
Параметр BVOP формата: Нет
Параметр матрицы формата: По умолчанию
Параметры GOP формата: M=1, N=10
Продолжительность: 27 м.
Вид битрейта: Переменный
Битрейт: 4882 Кбит/сек
Номинальный битрейт: 9610 Кбит/сек
Ширина: 720 пикс.
Высота: 576 пикс.
Соотношение сторон: 4:3
Частота кадров: 25,000 кадр/сек
Стандарт вещания: PAL
Цветовое пространство: YUV
Подвыборка цветности: 4:2:0
Битовая глубина: 8 бит
Тип развёртки: Чересстрочная
Порядок развёртки: Верхнее поле первое
Метод сжатия: С потерями
Бит/(Пиксели*Кадры): 0.471
Размер потока: 960 Мбайт (94%)

Аудио
Идентификатор: 192 (0xC0)
Формат: MPEG Audio
Версия формата: Version 1
Профиль формата: Layer 2
Продолжительность: 27 м.
Вид битрейта: Постоянный
Битрейт: 224 Кбит/сек
Каналы: 2 канала
Частота: 48,0 КГц
Метод сжатия: С потерями
Задержка видео: -40 мс.
Размер потока: 44,0 Мбайт (4%)

Меню












[b]Поделиться:



Вернуться к началу
 Профиль Отправить личное сообщение  
 
   Похожие торренты   Автор   Торрент   Размер 
В этой теме нет новых непрочитанных сообщений. Грязная работа / Dirty Job: Complotto Carnale / Reglements De Comptes (2008) DVD5

zorgi

40 | 38

3.88 ГБ

В этой теме нет новых непрочитанных сообщений. Sandra Otterson - Wifey's Happy Christmas! (2019) SiteRip

zorgi

9 | 3

506 МБ

В этой теме нет новых непрочитанных сообщений. Sandra Otterson - Wifey's Happy Christmas! (2019) WEB-DL 720p

zorgi

18 | 2

838.16 МБ

В этой теме нет новых непрочитанных сообщений. Alexis Fawx - All I Want For Christmas Is Dick [3000x2000] [158шт.] (2020) JPG

zorgi

0 | 0

116.63 МБ

В этой теме нет новых непрочитанных сообщений. Riley Reid - Рождественская группавуха / A Christmas Gangbang (2016) WEB-DLRip-HEVC

zorgi

35 | 4

758.8 МБ

В этой теме нет новых непрочитанных сообщений. Рождество на двоих / Last Christmas [драма, мелодрама, комедия, 2019] WEBRip 1080p, Dub

salma3

963 | 80

3.4 ГБ

В этой теме нет новых непрочитанных сообщений. Jasmine Jae - Advent Sunday Titty Fuck / Busty Christmas Warmup (2018) SiteRip

zorgi

45 | 16

357.25 МБ


Начать новую тему Ответить на тему  [ 1 сообщение ] 




Для Мосгорсуда, Роскомнадзора и рекламодателей:: rstracker[собака]yandex.ru
cron