Торрент файл
скачать торрент магнет ссылка Добавлен: 08 янв 2012, 03:37
Размер: 4.24 ГБ
Сидеров: 6
Личеров: 8
Автор

СообщениеДобавлено: 08 янв 2012, 03:37 

Не в сети
Супермодератор
Аватара пользователя
Дата регистрации:
22 май 2010, 11:03
Возраст: 31
Спасибо: 7509 / 13
Сообщения: 49940
VA - Дискотека 80-х. Песни моей мамы Vol. 6


Формат: DVD5, DVD Video, MPEG2, AC3
Песня: Дискотека 80-х. Песни моей мамы Vol. 6
Жанр: Рор, Disco, Shanson
Продолжительность: 01:59:18
Год выпуска: 1973-1994

Видео: 720х576 (PAL 4:3), 25 fps, MPEG-2, ~4181 kbps avg, 0.403 bit/pixel
Аудио: 48 kHz, AC-3 , 2 ch, 192.00 kbps avg

Доп. информация: В шестом альбоме продолжение подборки песен, которые помогут создать картину событий прошлого и вспомнить - как наши мамы проводили свой досуг на дискотеке 80-х в великой стране которой больше нет - в СССР.
01 А. Малинин - Поручик Голицын (1991)
02 В. Кикабидзе - Пожелание (1981)
03 Рок - Ателье - Мираж (1986)
04 А. Пугачева – Айсберг (1983)
05 К. Пахомов - Светлана (1989)
06 Круг - Кара-Кум (1985)
07 Машина времени – Cвеча (1980)
08 А. Серов - Ты меня любишь (1990)
09 Сталкер и А. Державин - Чужая свадьба (1994)
10 М. Боярский - Рыжий конь (1986)
11 Т. Буланова - Снег (1993)
12 Весёлые ребята - Безнадёга (1990)
13 В. Леонтьев - Полет на дельтаплане (1983)
14 Мираж - Новый герой (1989)
15 Синяя Птица-Мамина пластинка (197
16 Все звезды - Полосатая жизнь(1977)
17 Д. Маликов - Всё вернётся (1993)
18 Интеграл - Дальние материки (1986)
19 О. Даль - Есть только миг (1973)
20 С. Ротару - Было, но прошло (1987)
21 Ласковый май - Розовый вечер (1989)
22 Планета Икс и В. Агафонов – Лебеди (1988)
23 Песняры - Беловежская пуща (1976)
24 Самоцветы - На дальней станции сойду (1975)
25 В. Ивашов - Русское поле (1983)
26 Н. Селезнёва - Звенит январская вьюга (1977)
27 В. Кузьмин - Когда меня ты позовешь (1989)
28 И. Тальков - Чистые пруды (1988)
29 И. Николаев - Малиновое вино (1994)
30 Форум – Ревность (1990)

Общее
Полное имя: C:\Tfile\pesni_moej_mamy_vol6_[tfile.ru]\VIDEO_TS\VTS_01_1.VOB
Формат: MPEG-PS
Размер файла: 1024 Мбайт
Продолжительность: 32 м.
Общий поток: 4462 Кбит/сек

Видео
Идентификатор: 224 (0xE0)
Формат: MPEG Video
Версия формата: Version 2
Профиль формата: Main@Main
Параметр BVOP формата: Да
Параметр матрицы формата: По умолчанию
Параметры GOP формата: M=3, N=15
Продолжительность: 32 м.
Вид битрейта: Переменный
Битрейт: 4181 Кбит/сек
Номинальный битрейт: 9008 Кбит/сек
Ширина: 720 пикс.
Высота: 576 пикс.
Соотношение сторон: 4:3
Частота кадров: 25,000 кадр/сек
Стандарт вещания: PAL
Цветовое пространство: YUV
Подвыборка цветности: 4:2:0
Битовая глубина: 8 бит
Тип развёртки: Прогрессивная
Метод сжатия: С потерями
Бит/(Пиксели*Кадры): 0.403
Размер потока: 959 Мбайт (94%)

Аудио
Идентификатор: 128 (0x80)
Формат: AC-3
Формат/Информация: Audio Coding 3
Расширение режима: CM (complete main)
Продолжительность: 32 м.
Вид битрейта: Постоянный
Битрейт: 192 Кбит/сек
Канал(ы): 2 канала(ов)
Расположение каналов: Front: L R
Частота: 48,0 КГц
Битовая глубина: 16 бит
Метод сжатия: С потерями
Размер потока: 44,1 Мбайт (4%)













Поделиться:




реклама партнёра


Вернуться к началу
 Профиль Отправить личное сообщение  
 
   Похожие торренты   Автор   Торрент   Размер 
В этой теме нет новых непрочитанных сообщений. VA - Дискотека 80-90х по-новому 2 [2015, Disco, Pop, MP3]

Nickolas3435

647 | 15

1002.89 МБ

В этой теме нет новых непрочитанных сообщений. VA - Легендарная дискотека 90-х [2014, Disco, Dance, Pop, MP3]

Nickolas3435

986 | 21

720.01 МБ

В этой теме нет новых непрочитанных сообщений. VA - Турбо дискотека 50 на 50 [Pop, Disco, 2014] MP3, 256kbps

Dracon

49 | 4

671.01 МБ

В этой теме нет новых непрочитанных сообщений. Сборник - Зарубежная Дискотека 90-Х [2014, Pop, Disco, Eurodance, MP3]

Nickolas3435

447 | 10

835.4 МБ

В этой теме нет новых непрочитанных сообщений. Сборник - Назад В СССР - Дискотека 80-х, 90-х [2014, Pop, Disco, MP3]

Nickolas3435

926 | 35

699.56 МБ

В этой теме нет новых непрочитанных сообщений. VA - Дискотека в стиле Blue System [Pop, Disco, 2014] MP3, 128-320kbps

Dracon

66 | 6

709.04 МБ

В этой теме нет новых непрочитанных сообщений. VA - Осенняя дискотека популярных хитов [Pop, Disco, 2014] MP3, 256-319kbps

Dracon

57 | 4

687.46 МБ


Начать новую тему Ответить на тему  [ 1 сообщение ] 




Для Мосгорсуда, Роскомнадзора и рекламодателей:: mosgorsud-torrent[собачка]yandex.ru