Торрент файл
скачать торрент магнет ссылка Добавлен: 08 янв 2012, 03:36
Размер: 3.15 ГБ
Сидеров: 0
Личеров: 7
Автор

СообщениеДобавлено: 08 янв 2012, 03:36 

Не в сети
Супермодератор
Аватара пользователя
Дата регистрации:
22 май 2010, 11:03
Возраст: 31
Спасибо: 7509 / 13
Сообщения: 49940
Airbourne - Runnin' Wild


Формат: DVD5, DVD Video, MPEG2, AC3
Песня: Runnin' Wild
Жанр: Hard Rock
Продолжительность: 00:55:16
Год выпуска: 2008

Видео: 720х480 (NTSC 4:3), 29,970 fps, MPEG-2, 7500 kbps avg, 0.724 bit/pixel
Аудио: 48 kHz, AC-3 , 2 ch (Front: L R), 224.00 kbps avg

Доп. информация: Airbourne — австралийская рок-группа из Варнамбула, штат Виктория. Сформирована в 2003 году братьями Джоэлом и Райаном О’Киф. Музыка группы представляет собой высокоэнергичный паб-рок, характерный для многих групп из Австралии.

Треклист:
Live
01.Hellfire
02. Fat City
03. What's Eatin' You
04. Girls In Black
05. Cheap Wine & Cheaper Women
06. Heartbreaker
07. Blackjack
08. Runnin' Wild
Bonus clip
01. Runnin' Wild
02. Too Much, Too Young, Too Fast
03. Diamond In My Rough

Общее
Полное имя: C:\Tfile\airbourne_runnin_wild_[tfile.ru]\VIDEO_TS\VTS_01_1.VOB
Формат: MPEG-PS
Размер файла: 1024 Мбайт
Продолжительность: 18 м.
Общий поток: 7863 Кбит/сек

Видео
Идентификатор: 224 (0xE0)
Формат: MPEG Video
Версия формата: Version 2
Профиль формата: Main@Main
Параметр BVOP формата: Да
Параметр матрицы формата: По умолчанию
Параметры GOP формата: M=3, N=10
Продолжительность: 18 м.
Вид битрейта: Постоянный
Битрейт: 7500 Кбит/сек
Ширина: 720 пикс.
Высота: 480 пикс.
Соотношение сторон: 2,35:1
Частота кадров: 29,970 кадр/сек
Стандарт вещания: NTSC
Цветовое пространство: YUV
Подвыборка цветности: 4:2:0
Битовая глубина: 8 бит
Тип развёртки: Чересстрочная
Порядок развёртки: Верхнее поле первое
Метод сжатия: С потерями
Бит/(Пиксели*Кадры): 0.724
Размер потока: 974 Мбайт (95%)

Аудио
Идентификатор: 128 (0x80)
Формат: AC-3
Формат/Информация: Audio Coding 3
Расширение режима: CM (complete main)
Продолжительность: 18 м.
Вид битрейта: Постоянный
Битрейт: 224 Кбит/сек
Канал(ы): 2 канала(ов)
Расположение каналов: Front: L R
Частота: 48,0 КГц
Битовая глубина: 16 бит
Метод сжатия: С потерями
Размер потока: 29,2 Мбайт (3%)













Поделиться:




реклама партнёра


Вернуться к началу
 Профиль Отправить личное сообщение  
 
   Похожие торренты   Автор   Торрент   Размер 
В этой теме нет новых непрочитанных сообщений. Airbourne - Black Dog Barking (Special Edition) [2013,Hard Rock,MP3]

PriZraK

3 | 2

199.34 МБ

В этой теме нет новых непрочитанных сообщений. Michael Deacon - Runnin' In The Meadow [2008, Folk Rock, MP3]

PriZraK

0 | 1

119.54 МБ

В этой теме нет новых непрочитанных сообщений. Wild Dawn - Double Sided [2012, Hard Rock, Hard-n-Heavy, MP3]

PriZraK

0 | 2

123.77 МБ

В этой теме нет новых непрочитанных сообщений. Led Zeppelin - Throwing The Wild Seeds (Nassau Coliseum 1975 Complete Tapes, 6CD Box Set) [2013, Hard Rock, Heavy Metal, Blues Rock, Folk Rock, MP3]

PriZraK

1 | 2

914.12 МБ

В этой теме нет новых непрочитанных сообщений. Wild August - Wild August 2 [1991, Hard Rock, MP3]

PriZraK

0 | 1

66.1 МБ

В этой теме нет новых непрочитанных сообщений. Pretty Wild - Pretty Wild [2014, Hard Rock, MP3]

PriZraK

0 | 1

119.61 МБ

В этой теме нет новых непрочитанных сообщений. Brighton Rock - Young, Wild And Free [1986, Melodic Hard Rock, MP3]

PriZraK

4 | 2

95.76 МБ


Начать новую тему Ответить на тему  [ 1 сообщение ] 




Для Мосгорсуда, Роскомнадзора и рекламодателей:: mosgorsud-torrent[собачка]yandex.ru