Торрент файл
скачать торрент магнет ссылка Добавлен: 08 янв 2012, 03:36
Размер: 3.15 ГБ
Сидеров: 0
Личеров: 9
Автор

СообщениеДобавлено: 08 янв 2012, 03:36 

Не в сети
Супермодератор
Аватара пользователя
Дата регистрации:
22 май 2010, 11:03
Возраст: 37
Спасибо: 7939 / 13
Сообщения: 49828
Airbourne - Runnin' Wild


Формат: DVD5, DVD Video, MPEG2, AC3
Песня: Runnin' Wild
Жанр: Hard Rock
Продолжительность: 00:55:16
Год выпуска: 2008

Видео: 720х480 (NTSC 4:3), 29,970 fps, MPEG-2, 7500 kbps avg, 0.724 bit/pixel
Аудио: 48 kHz, AC-3 , 2 ch (Front: L R), 224.00 kbps avg

Доп. информация: Airbourne — австралийская рок-группа из Варнамбула, штат Виктория. Сформирована в 2003 году братьями Джоэлом и Райаном О’Киф. Музыка группы представляет собой высокоэнергичный паб-рок, характерный для многих групп из Австралии.

Треклист:
Live
01.Hellfire
02. Fat City
03. What's Eatin' You
04. Girls In Black
05. Cheap Wine & Cheaper Women
06. Heartbreaker
07. Blackjack
08. Runnin' Wild
Bonus clip
01. Runnin' Wild
02. Too Much, Too Young, Too Fast
03. Diamond In My Rough

Общее
Полное имя: C:\Tfile\airbourne_runnin_wild_[tfile.ru]\VIDEO_TS\VTS_01_1.VOB
Формат: MPEG-PS
Размер файла: 1024 Мбайт
Продолжительность: 18 м.
Общий поток: 7863 Кбит/сек

Видео
Идентификатор: 224 (0xE0)
Формат: MPEG Video
Версия формата: Version 2
Профиль формата: Main@Main
Параметр BVOP формата: Да
Параметр матрицы формата: По умолчанию
Параметры GOP формата: M=3, N=10
Продолжительность: 18 м.
Вид битрейта: Постоянный
Битрейт: 7500 Кбит/сек
Ширина: 720 пикс.
Высота: 480 пикс.
Соотношение сторон: 2,35:1
Частота кадров: 29,970 кадр/сек
Стандарт вещания: NTSC
Цветовое пространство: YUV
Подвыборка цветности: 4:2:0
Битовая глубина: 8 бит
Тип развёртки: Чересстрочная
Порядок развёртки: Верхнее поле первое
Метод сжатия: С потерями
Бит/(Пиксели*Кадры): 0.724
Размер потока: 974 Мбайт (95%)

Аудио
Идентификатор: 128 (0x80)
Формат: AC-3
Формат/Информация: Audio Coding 3
Расширение режима: CM (complete main)
Продолжительность: 18 м.
Вид битрейта: Постоянный
Битрейт: 224 Кбит/сек
Канал(ы): 2 канала(ов)
Расположение каналов: Front: L R
Частота: 48,0 КГц
Битовая глубина: 16 бит
Метод сжатия: С потерями
Размер потока: 29,2 Мбайт (3%)













Поделиться:



Вернуться к началу
 Профиль Отправить личное сообщение  
 
   Похожие торренты   Автор   Торрент   Размер 
В этой теме нет новых непрочитанных сообщений. Julie Holly - This Wild French Mom Is Begging For A Big Hard Cock Rammed Up Her Ass (2019) WEB-DL 1080p

zorgi

22 | 2

1.97 ГБ

В этой теме нет новых непрочитанных сообщений. Дикие вишенки 5 / Wild Cherries 5 (2008) DVDRip

zorgi

0 | 1

698.93 МБ

В этой теме нет новых непрочитанных сообщений. [TeenFidelity.com / KellyMadisonMedia.com] Jenny Wild - Wild at Heart (19.04.2022) [Creampie, All Sex]

zorgi

0 | 0

312.23 МБ

В этой теме нет новых непрочитанных сообщений. Nat Geo Wild: Дикие кошки Таиланда / Thailand's Wild Cats [2021, Документальный, фауна, флора, природа, HDTVRip]

zorgi

0 | 0

755.39 МБ

В этой теме нет новых непрочитанных сообщений. Nat Geo Wild: Дикие тигры России / Russia's Wild Tiger [2022, Документальный, фауна, флора, природа, HDTVRip]

zorgi

1 | 0

741.76 МБ

В этой теме нет новых непрочитанных сообщений. Wicked - Веское доказательство / Hard Evidence (1996) DVD5

zorgi

1 | 1

4.26 ГБ

В этой теме нет новых непрочитанных сообщений. Gueppardo - I Am The Law [2021 г., Heavy-Metal, Hard-Rock, MP3]

zorgi

0 | 0

77.49 МБ


Начать новую тему Ответить на тему  [ 1 сообщение ] 




Для Мосгорсуда, Роскомнадзора и рекламодателей:: rstracker[собака]yandex.ru
cron
cron