Торрент файл
скачать торрент магнет ссылка Добавлен: 08 янв 2012, 03:35
Размер: 3.55 ГБ
Сидеров: 0
Личеров: 5
Автор

СообщениеДобавлено: 08 янв 2012, 03:35 

Не в сети
Супермодератор
Аватара пользователя
Дата регистрации:
22 май 2010, 11:03
Возраст: 31
Спасибо: 7508 / 13
Сообщения: 49940
VA - Лучшее на Ello Vol. 12/2 (Eng)


Формат: DVD5, DVD Video, MPEG2, AC3
Песня: Лучшее на Ello Vol. 12/2 (Eng)
Жанр: Pop, Danc
Продолжительность: 01:52:26
Год выпуска: 2011

Видео: 720х576 (PAL 4:3), 25 fps, MPEG-2, ~4030 kbps avg, 0.389 bit/pixel
Аудио: 48 kHz, АС-3 , 2 ch, 192.00 kbps avg

Доп. информация:
Материал взят с канала Ello - который представляет в свою очередь новинки как российской так и зарубежной попсы. Отличный профессиональный музыкальный канал. Здесь можно увидеть как звезд так и совершенно молодых исполнителей. Предлагаю Вашему вниманию ДВЕНАДЦАТУЮ подборку слеш два (все песни на иностранных языках) с этого канала.
01 Diana Miro Project – Forever
02 Badoev – Sex
03 Mariya feat Ja Rule - I'm here
04 Franky – Hologram
05 YarosLOVE - To be free
06 Dan Balan – Freedom
07 Bozon Higgs - Around you
08 Kazaky – Love
09 SisterSiren - Innocent Killah
10 Patrix – Eurodance
11 Dj Yankovski - Fouler Sentimentale
12 Makarova – Sunshine
13 Lia Gold - You are the best
14 Guru Josh Project – Infinity
15 Bobina & Betsie Larkin - You Belong To Me
16 Sender - The Crystals
17 Fragma-Oops Sorry
18 Denis Montero - It's Not A Sacrifice
19 Mishelle feat Randi - Only You
20 Alex Belenki - Give me a sign
21 Laurent Wolf – Explosion
22 Diana Diez & Kostas Martakis - SEX INDIGO
23 Her Majesty & The Wolves - Goodbye, Goodnight
24 Sam Milles – Dancing
25 Koncevich - Have Sex
26 Andreas - Make Love
27 Aray - I'm crazy
28 Badoev – Action
29 Michael Inge - Love to Love
30 Irene Nelson - When apples fall to the sky (Live)
31 Ruslana – Shalala
32 Dub T - I Feel You

Общее
Полное имя: C:\Tfile\luchshee_ot_ello_vol12_2_[tfile.ru]\VIDEO_TS\VTS_01_1.VOB
Формат: MPEG-PS
Размер файла: 1024 Мбайт
Продолжительность: 33 м.
Общий поток: 4308 Кбит/сек

Видео
Идентификатор: 224 (0xE0)
Формат: MPEG Video
Версия формата: Version 2
Профиль формата: Main@Main
Параметр BVOP формата: Да
Параметр матрицы формата: По умолчанию
Параметры GOP формата: M=3, N=15
Продолжительность: 33 м.
Вид битрейта: Переменный
Битрейт: 4030 Кбит/сек
Номинальный битрейт: 9008 Кбит/сек
Ширина: 720 пикс.
Высота: 576 пикс.
Соотношение сторон: 4:3
Частота кадров: 25,000 кадр/сек
Стандарт вещания: PAL
Цветовое пространство: YUV
Подвыборка цветности: 4:2:0
Битовая глубина: 8 бит
Тип развёртки: Прогрессивная
Метод сжатия: С потерями
Бит/(Пиксели*Кадры): 0.389
Размер потока: 958 Мбайт (94%)

Аудио
Идентификатор: 128 (0x80)
Формат: AC-3
Формат/Информация: Audio Coding 3
Расширение режима: CM (complete main)
Продолжительность: 33 м.
Вид битрейта: Постоянный
Битрейт: 192 Кбит/сек
Канал(ы): 2 канала(ов)
Расположение каналов: Front: L R
Частота: 48,0 КГц
Битовая глубина: 16 бит
Метод сжатия: С потерями
Размер потока: 45,6 Мбайт (4%)












Поделиться:




реклама партнёра


Вернуться к началу
 Профиль Отправить личное сообщение  
 
   Похожие торренты   Автор   Торрент   Размер 
В этой теме нет новых непрочитанных сообщений. Освенцим / Auschwitz [драма, 2011] DVD5, Mvo+Sub [лицензия]

Dracon

57 | 7

3.77 ГБ

В этой теме нет новых непрочитанных сообщений. Уловка .44 / Catch .44 [триллер, драма, криминал, 2011] DVD5, Mvo+Sub

salma3

10 | 8

4.37 ГБ

В этой теме нет новых непрочитанных сообщений. Многоэтажка / Небоскреб смерти / Tower Block [триллер, 2011] DVD5, Mvo+Sub

salma3

9 | 7

4.32 ГБ

В этой теме нет новых непрочитанных сообщений. Военные игры / War Games: At the End of the Day [Триллер, боевик, ужасы, 2011] DVD5, Mvo

salma3

15 | 11

4.35 ГБ

В этой теме нет новых непрочитанных сообщений. Маленький убийца / Little Murder [триллер, драма, 2011] DVD5, Mvo [лицензия]

salma3

0 | 2

3.93 ГБ

В этой теме нет новых непрочитанных сообщений. 12 Рождественских желаний / 12 Wishes of Christmas [фэнтези, комедия, 2011] DVD5, Mvo [лицензия]

salma3

48 | 7

3.92 ГБ

В этой теме нет новых непрочитанных сообщений. Последний час Земли / Earth's Final Hours [Фантастика, 2011] DVD5, Mvo [Лицензия]

salma3

41 | 14

4.01 ГБ


Начать новую тему Ответить на тему  [ 1 сообщение ] 




Для Мосгорсуда, Роскомнадзора и рекламодателей:: mosgorsud-torrent[собачка]yandex.ru