Торрент файл
скачать торрент магнет ссылка Добавлен: 08 янв 2012, 03:34
Размер: 5.47 ГБ
Сидеров: 4
Личеров: 8
Автор

СообщениеДобавлено: 08 янв 2012, 03:34 

Не в сети
Супермодератор
Аватара пользователя
Дата регистрации:
22 май 2010, 11:03
Возраст: 31
Спасибо: 7513 / 13
Сообщения: 49940
Twisted Sister - Live At The Astoria

Формат: DVD9, DVD Video, MPEG2, PCM
Песня: Live At The Astoria
Жанр: Glam Rock
Продолжительность: 01:37:20
Год выпуска: 2008
Видео: MPEG 2 VIDEO, 720*480, (NTSC 4:3), 29.97 fps, ~6472 kbps avg, 0,625 bit/pixel
Аудио: 48.0 khz, PCM, 2 ch, 1536 kbps avg
Доп. информация: Концерт в Лондоне, Великобритания. 1 августа 2004 года
    Треклист
01. What You Don't Know (Sure Can Hurt You)
02. The Kids Are Back
03. Under The Blade
04. Destroyer
05. Like A Knife In The Back
06. Burn In Hell
07. Ride To Live
08. Shoot 'Em Down
09. You Can't Stop Rock N' Roll
10. The Fire Still Burns
11. We're Not Gonna Take It
12. The Price
13. I Am, I'm Me
14. I Wanna Rock
15. Come Out & Play
16. S.F.M
Title: Twisted Sister - Live At The Astoria
Size: 5.47 Gb ( 5 734 896,00 KBytes ) - DVD-9
Enabled regions: 1, 2, 3, 4, 5, 6, 7, 8

VTS_01 :
Play Length: 00:00:01
Video: NTSC 4:3 (720x480) VBR
Audio:
English (Dolby AC3, 2 ch)

VTS_02 :
Play Length: 00:00:01
Video: NTSC 4:3 (720x480) VBR
Audio:
English (Dolby AC3, 2 ch)

VTS_03 :
Play Length: 00:00:15
Video: NTSC 4:3 (720x480) VBR
Audio:
English (Dolby AC3, 2 ch)

VTS_04 :
Play Length: 01:37:20
Video: NTSC 4:3 (720x480) VBR
Audio:
English, LPCM, Delay = 0 mSec

VTS_05 :
Play Length: 00:00:31
Video: NTSC 4:3 (720x480) VBR
Audio:
English (LinearPCM, 2 ch)
Общее
Полное имя: D:\Video\Twisted Sister - Live At The Astoria\VIDEO_TS\VTS_04_1.VOB
Формат: MPEG-PS
Размер файла: 1024 Мбайт
Продолжительность: 17 м.
Общий поток: 8170 Кбит/сек

Видео
Идентификатор: 224 (0xE0)
Формат: MPEG Video
Версия формата: Version 2
Профиль формата: Main@Main
Параметр BVOP формата: Да
Параметр матрицы формата: По умолчанию
Продолжительность: 17 м.
Вид битрейта: Переменный
Битрейт: 6472 Кбит/сек
Номинальный битрейт: 8000 Кбит/сек
Ширина: 720 пикс.
Высота: 480 пикс.
Соотношение сторон: 4:3
Частота кадров: 29,970 кадр/сек
Стандарт вещания: NTSC
Цветовое пространство: YUV
Подвыборка цветности: 4:2:0
Битовая глубина: 8 бит
Тип развёртки: Чересстрочная
Порядок развёртки: Верхнее поле первое
Метод сжатия: С потерями
Бит/(Пиксели*Кадры): 0.625
Размер потока: 811 Мбайт (79%)

Аудио
Идентификатор: 160 (0xA0)
Формат: PCM
Параметр Endianness формата: Big
Параметр Sign формата: Signed
Режим смешивания: DVD-Video
Продолжительность: 17 м.
Вид битрейта: Постоянный
Битрейт: 1536 Кбит/сек
Каналы: 2 канала
Расположение каналов: Front: L R
Частота: 48,0 КГц
Битовая глубина: 16 бит
Размер потока: 192 Мбайт (19%)

Меню








[b]Поделиться:




реклама партнёра


Вернуться к началу
 Профиль Отправить личное сообщение  
 
   Похожие торренты   Автор   Торрент   Размер 
В этой теме нет новых непрочитанных сообщений. Sister - Disguised Vultures [2014, Glam Metal, MP3]

PriZraK

7 | 2

94.69 МБ

В этой теме нет новых непрочитанных сообщений. White Sister - White Sister (Rock Candy Remaster) [2013, Pomp Rock, MP3]

PriZraK

0 | 2

103.2 МБ

В этой теме нет новых непрочитанных сообщений. The Cotton Soeterboek Band - Twisted [2008, Hard Rock, MP3]

PriZraK

2 | 2

71.89 МБ

В этой теме нет новых непрочитанных сообщений. Cinderella - Stripped [Live] (Hard Rock, Glam Metal. 2014) MP3

Aleksandr.ru

98 | 12

182.42 МБ

В этой теме нет новых непрочитанных сообщений. Pleasure Maker - Twisted Desire [2008, Melodic Hard Rock, MP3]

PriZraK

0 | 1

92.38 МБ

В этой теме нет новых непрочитанных сообщений. Saints Of The Underground - Love The Sin, Hate The Sinner [2008, Hard Rock, Glam Rock, MP3]

PriZraK

0 | 1

95.8 МБ

В этой теме нет новых непрочитанных сообщений. VA - Стальные нервы (Glam Metal and Hair Rock Classics) [2013, Glam Metal, Hair Rock, Hard Rock, Rock, MP3]

PriZraK

0 | 1

589.04 МБ


Начать новую тему Ответить на тему  [ 1 сообщение ] 




Для Мосгорсуда, Роскомнадзора и рекламодателей:: mosgorsud-torrent[собачка]yandex.ru