Торрент файл
скачать торрент магнет ссылка Добавлен: 08 янв 2012, 03:34
Размер: 3.84 ГБ
Сидеров: 5
Личеров: 5
Автор

СообщениеДобавлено: 08 янв 2012, 03:34 

Не в сети
Супермодератор
Аватара пользователя
Дата регистрации:
22 май 2010, 11:03
Возраст: 32
Спасибо: 7690 / 13
Сообщения: 49871
U.D.O.(UDO) - Nailed To Metal - Complete History

Формат: DVD5, DVD Video, MPEG2, MP2
Песня: Nailed To Metal - Complete History
Жанр: Heavy Metal
Продолжительность: 03:15:11
Год выпуска: 2003
Видео: MPEG 2 VIDEO, 720*576 ( PAL 4:3), 25.00 fps, ~4000 kbps avg, 0,386 bit/pixel
Аудио: 48.0 khz, MPEG AUDIO (version 1) (layer 2), 2 ch, 384 kbps avg

Доп. информация: Фрагменты концерта в Москве, видеоклипы и многое другое...
Live from Russia:

1. Holy
2. Raiders Of Beyond
3. Midnight Mover
4. Independence Day
5. Metal Eater
6. Winter Dreams
7. Shout It Out
8. Cut Me Out
9. I'm A Rebel

Videoclips:

1. They Want War
2. Break The Rules
3. Heart Of Gold (videoclip)
4. Heart Of Gold (making of)
5. Heart Of Gold (hit studio 1989)
6. Timebomb (electronic press kit)
7. Independence Day
8. Still (Udo with Aria)
9. Go Back to Hell (live in Bochum 1988)
10. Drum solo (Russia 2001)

Previously unreleased audio tracks:

1. X-T-C (taken from the album A Tribute To Accept II)
2. The Key (bonus track of the album No Limits)
3. Mad Dogs And Loaded Guns (demo version for the album Solid)
4. Warchild (demo version for the album Solid)
5. Rated X (demo version for the album No Limits)
6. Tough Luck (demo version for the album No Limits)
7. Recall The Sin (demo version for the album Holy)

DVD Extras:

* Behind the scene (on tour in Russia, on tour in the USA, parashoot jump)
* Photo gallery
* Biographies
* Discography of all the albums including covers, lyrics and audio samples
* Websites
Общее
Полное имя: D:\Torrents\Download\UDO - Nailed To Metal\VIDEO_TS\VTS_01_1.VOB
Формат: MPEG-PS
Размер файла: 977 Мбайт
Продолжительность: 30 м.
Общий поток: 4502 Кбит/сек

Видео
Идентификатор: 224 (0xE0)
Формат: MPEG Video
Версия формата: Version 2
Профиль формата: Main@Main
Параметр BVOP формата: Да
Параметр матрицы формата: По умолчанию
Продолжительность: 30 м.
Вид битрейта: Постоянный
Битрейт: 4000 Кбит/сек
Ширина: 720 пикс.
Высота: 576 пикс.
Соотношение сторон: 4:3
Частота кадров: 25,000 кадр/сек
Стандарт вещания: PAL
Цветовое пространство: YUV
Подвыборка цветности: 4:2:0
Битовая глубина: 8 бит
Тип развёртки: Прогрессивная
Метод сжатия: С потерями
Бит/(Пиксели*Кадры): 0.386
Размер потока: 874 Мбайт (89%)

Аудио
Идентификатор: 192 (0xC0)
Формат: MPEG Audio
Версия формата: Version 1
Профиль формата: Layer 2
Продолжительность: 30 м.
Вид битрейта: Постоянный
Битрейт: 384 Кбит/сек
Каналы: 2 канала
Частота: 48,0 КГц
Метод сжатия: С потерями
Размер потока: 83,3 Мбайт (9%)

Меню









[b]Поделиться:




реклама партнёра


Вернуться к началу
 Профиль Отправить личное сообщение  
 
   Похожие торренты   Автор   Торрент   Размер 
В этой теме нет новых непрочитанных сообщений. VA - Heavy Metal: Louder Than Life [2015, Hard Rock, Melodic Heavy Metal, Heavy Metal, MP3]

Nickolas3435

0 | 272

2.43 ГБ

В этой теме нет новых непрочитанных сообщений. W.A.S.P. - Golgotha [2015, Heavy Metal, Glam Metal, Hard Rock, MP3]

salma3

0 | 0

108.17 МБ

В этой теме нет новых непрочитанных сообщений. Accept - Heavy Ballads (Heavy Metal. 2015) MP3

Aleksandr.ru

403 | 36

363.25 МБ

В этой теме нет новых непрочитанных сообщений. Сборник клипов - Monsters of Metal Vol. 10 [2016, Black Metal, Death Metal, Gothic, WEBRip]

salma3

181 | 14

7.01 ГБ

В этой теме нет новых непрочитанных сообщений. U.D.O. - Decadent (Heavy Metal. 2015) MP3

Aleksandr.ru

11 | 4

138.24 МБ

В этой теме нет новых непрочитанных сообщений. Katana - The Greatest Victory [2015, Heavy metal, MP3]

salma3

0 | 0

106.31 МБ

В этой теме нет новых непрочитанных сообщений. Чёрный Обелиск - Революция (Heavy Metal. 2015) MP3

Aleksandr.ru

95 | 3

79.59 МБ


Начать новую тему Ответить на тему  [ 1 сообщение ] 




Для Мосгорсуда, Роскомнадзора и рекламодателей:: mosgorsud-torrent[собачка]yandex.ru