Торрент файл
скачать торрент магнет ссылка Добавлен: 08 янв 2012, 03:33
Размер: 4.3 ГБ
Сидеров: 13
Личеров: 8
Автор

СообщениеДобавлено: 08 янв 2012, 03:33 

Не в сети
Супермодератор
Аватара пользователя
Дата регистрации:
22 май 2010, 11:03
Возраст: 31
Спасибо: 7509 / 13
Сообщения: 49940
VA - Дискотека 80-х. Песни моей мамы Vol. 7


Формат: DVD5, DVD Video, MPEG2, AC3
Песня: Дискотека 80-х. Песни моей мамы Vol. 7
Жанр: Disco, Pop
Продолжительность: 02:04:21
Год выпуска: 1981-1996

Видео: 720х576 (PAL 4:3), 25 fps, MPEG-2, ~3712 kbps avg, 0.358 bit/pixel
Аудио: 48 kHz, AC-3 , 2 ch, 192.00 kbps avg

Доп. информация: В седьмом альбоме продолжение подборки песен, которые помогут создать картину событий прошлого и вспомнить - как наши мамы проводили свой досуг на дискотеке 80-х в великой стране которой больше нет - в СССР.
01 В. Малежик - Смолоду (1988)
02 И. Тальков - Звезда (1989)
03 Машина времени - Барьер (1981)
04 Е. Семёнова - Прошлая зима (1989)
05 Браво - Вася (1991)
06 Э. Предигер и Альфа -Театр (1995)
07 М. Боярский и А. Вески - Ах, этот вечер (1983)
08 А. Державин - Катя-Катерина (1994)
09 С. Васюта - Улетела ты (1996)
10 Интеграл - Звезды коснись (1986)
11 А. Хоралов - Без тебя (1985)
12 Мираж и Е.Болдышева - Ты словно тень (1991)
13 Шериф - Не уходи (1990)
14 И. Николаев - Выпьем за любовь (1995)
15 Ф. Киркоров - Ты ты ты (1991)
16 А. Серов - Мадонна (1994)
17 Комбинация - Московская прописка (1990)
18 Ю. Лоза - Девочка в баре (1995)
19 Группа Кино - Звезда по имени Солнце (1990)
20 Т. Буланова - Как жаль (1993)
21 И. Скляр - Суббота есть суббота (1986)
22 Шоколад - Твои глаза (1993)
23 Наутилус Помпилиус - Я хочу быть с тобой (1987)
24 О. Зарубина - Заговорные слова (1986)
25 В. Шурочкин - Уходит лето (1990)
26 С. Беликов - Снится мне деревня (1987)
27 Секрет- Домой (1989)
28 Анонс - Хулиган (1989)
29 И. Аллегрова - Младший лейтенант (1994)
30 М. Муромов - Странная женщина (1990)

Общее
Полное имя: C:\Tfile\pesni_moej_mamy_vol7_[tfile.ru]\VIDEO_TS\VTS_01_1.VOB
Формат: MPEG-PS
Размер файла: 1024 Мбайт
Продолжительность: 35 м.
Общий поток: 3983 Кбит/сек

Видео
Идентификатор: 224 (0xE0)
Формат: MPEG Video
Версия формата: Version 2
Профиль формата: Main@Main
Параметр BVOP формата: Да
Параметр матрицы формата: По умолчанию
Параметры GOP формата: M=3, N=15
Продолжительность: 35 м.
Вид битрейта: Переменный
Битрейт: 3712 Кбит/сек
Номинальный битрейт: 9008 Кбит/сек
Ширина: 720 пикс.
Высота: 576 пикс.
Соотношение сторон: 4:3
Частота кадров: 25,000 кадр/сек
Стандарт вещания: PAL
Цветовое пространство: YUV
Подвыборка цветности: 4:2:0
Битовая глубина: 8 бит
Тип развёртки: Прогрессивная
Метод сжатия: С потерями
Бит/(Пиксели*Кадры): 0.358
Размер потока: 954 Мбайт (93%)

Аудио
Идентификатор: 128 (0x80)
Формат: AC-3
Формат/Информация: Audio Coding 3
Расширение режима: CM (complete main)
Продолжительность: 35 м.
Вид битрейта: Постоянный
Битрейт: 192 Кбит/сек
Канал(ы): 2 канала(ов)
Расположение каналов: Front: L R
Частота: 48,0 КГц
Битовая глубина: 16 бит
Метод сжатия: С потерями
Размер потока: 49,3 Мбайт (5%)












Поделиться:




реклама партнёра


Вернуться к началу
 Профиль Отправить личное сообщение  
 
   Похожие торренты   Автор   Торрент   Размер 
В этой теме нет новых непрочитанных сообщений. VA - Дискотека 80-90х по-новому 2 [2015, Disco, Pop, MP3]

Nickolas3435

647 | 15

1002.89 МБ

В этой теме нет новых непрочитанных сообщений. VA - Турбо дискотека 50 на 50 [Pop, Disco, 2014] MP3, 256kbps

Dracon

49 | 4

671.01 МБ

В этой теме нет новых непрочитанных сообщений. VA - Легендарная дискотека 90-х [2014, Disco, Dance, Pop, MP3]

Nickolas3435

986 | 21

720.01 МБ

В этой теме нет новых непрочитанных сообщений. Сборник - Зарубежная Дискотека 90-Х [2014, Pop, Disco, Eurodance, MP3]

Nickolas3435

447 | 10

835.4 МБ

В этой теме нет новых непрочитанных сообщений. Сборник - Назад В СССР - Дискотека 80-х, 90-х [2014, Pop, Disco, MP3]

Nickolas3435

926 | 35

699.56 МБ

В этой теме нет новых непрочитанных сообщений. VA - Осенняя дискотека популярных хитов [Pop, Disco, 2014] MP3, 256-319kbps

Dracon

57 | 4

687.46 МБ

В этой теме нет новых непрочитанных сообщений. VA - Дискотека в стиле Blue System [Pop, Disco, 2014] MP3, 128-320kbps

Dracon

66 | 6

709.04 МБ


Начать новую тему Ответить на тему  [ 1 сообщение ] 




Для Мосгорсуда, Роскомнадзора и рекламодателей:: mosgorsud-torrent[собачка]yandex.ru