Торрент файл
скачать торрент магнет ссылка Добавлен: 08 янв 2012, 03:32
Размер: 8.4 ГБ
Сидеров: 7
Личеров: 6
Автор

СообщениеДобавлено: 08 янв 2012, 03:32 

Не в сети
Супермодератор
Аватара пользователя
Дата регистрации:
22 май 2010, 11:03
Возраст: 31
Спасибо: 7513 / 13
Сообщения: 49940
Beyonce Live At Roseland Elements Of 4

Формат: DVD5, DVD Video, MPEG2, AC3
Песня: Beyonce Live At Roseland Elements Of 4
Жанр: R'n'B
Продолжительность: 02:13:13
Год выпуска: 2011

Видео: MPG2, 853х480, YUV (16:9), 29.97 fps, 6809 Kbps, 0.657 bit/pixel
Аудио#1: 48.0 kHz, AC3, 6 ch, ~ 448 Kbps
Аудио#2: 48.0 kHz, PCM, 2 ch, ~ 1536 Kbps

Доп. информация: Официальный концертный DVD Beyonce, состоящий из двух дисков и включающий в себя кроме самого концертного выступления, все музыкальные клипы с последнего альбома "4", а так же некоторые другие видео о том как создавался этот проект.

Disc 1 (01:25:01):
Live At Roseland
The Journey B "4"...
01. Intro
02. I Wanna Be Where You Are
03. No, No, No (Part 1)
04. No, No, No (Part 2)
05. Bug A Boo
06. Bills, Bills, Bills
07. Say My Name
08. Jumpin' Jumpin'
09. Independent Women Part 1
10. Bootylicious
11. Survivor
12. Bonnie & Clyde
13. Crazy In Love
14. Dreamgirls
15. Irreplaceable
16. Single Ladies (Put A Ring On It)
Elements Of "4"
17. I Care
18. I Miss You
19. Run The World (Girls)
20. 1+1 1
21. Party
22. Love On Top
23. Best Thing I Never Had
24. Countdown
25. Rather Die Young
26. End Of Time
27. I Was Here
Roseland: Behind The Stage
Disc 2 (00:48:12):
Video Anthology
01. 1+1
02. Best Thing I Never Had
03. Party (featuring J. Cole)
04. Love On Top
05. Countdown
06. Run The World (Girls)
07. Dance For You
Exclusive Bonus Footage:
Beyoncé: Behind The Camera

General
Complete name: C:\Users\1\Desktop\релизы\Beyonce Live At Roseland Elements Of 4\beyonce_live_at_roseland_elements_of_4_[tfile.ru]\DVD1\VIDEO_TS\VTS_01_1.VOB
Format: MPEG-PS
File size: 1 024 MiB
Duration: 15mn 37s
Overall bit rate: 9 156 Kbps

Video
ID: 224 (0xE0)
Format: MPEG Video
Format version: Version 2
Format profile: Main@Main
Format settings, BVOP: Yes
Format settings, Matrix: Default
Duration: 15mn 37s
Bit rate mode: Constant
Bit rate: 6 809 Kbps
Nominal bit rate: 6 000 Kbps
Width: 720 pixels
Height: 480 pixels
Display aspect ratio: 16:9
Frame rate: 29.970 fps
Standard: NTSC
Resolution: 8 bits
Colorimetry: 4:2:0
Scan type: Interlaced
Scan order: Bottom Field First
Bits/(Pixel*Frame): 0.657
Stream size: 761 MiB (74%)

Audio #1
ID: 129 (0x81)
Format: AC-3
Format/Info: Audio Coding 3
Duration: 15mn 37s
Bit rate mode: Constant
Bit rate: 448 Kbps
Channel(s): 6 channels
Channel positions: Front: L C R, Surround: L R, LFE
Sampling rate: 48.0 KHz
Stream size: 50.1 MiB (5%)

Audio #2
ID: 160 (0xA0)
Format: PCM
Format settings, Endianness: Big
Format settings, Sign: Signed
Muxing mode: DVD-Video
Duration: 15mn 37s
Bit rate mode: Constant
Bit rate: 1 536 Kbps
Channel(s): 2 channels
Channel positions: Front: L R
Sampling rate: 48.0 KHz
Resolution: 16 bits
Stream size: 172 MiB (17%)

Text #1
ID: 32 (0x20)
Format: RLE
Format/Info: Run-length encoding

Text #2
ID: 33 (0x21)
Format: RLE
Format/Info: Run-length encoding

Text #3
ID: 34 (0x22)
Format: RLE
Format/Info: Run-length encoding

Text #4
ID: 35 (0x23)
Format: RLE
Format/Info: Run-length encoding

Text #5
ID: 36 (0x24)
Format: RLE
Format/Info: Run-length encoding

Text #6
ID: 37 (0x25)
Format: RLE
Format/Info: Run-length encoding

Menu



















Релиз предоставлен группой:
Поделиться:




реклама партнёра


Вернуться к началу
 Профиль Отправить личное сообщение  
 
   Похожие торренты   Автор   Торрент   Размер 
В этой теме нет новых непрочитанных сообщений. Within Temptation: Let Us Burn - Elements & Hydra Live In Concert [Symphonic Metal, Gothic Rock, Power Metal, 2014] BDRemux 1080i

Dracon

32 | 8

20.63 ГБ

В этой теме нет новых непрочитанных сообщений. Inhale the Sea - The Fourth Coordinate [2011, Metalcore, With Post Rock Elements, MP3]

PriZraK

0 | 1

93.7 МБ

В этой теме нет новых непрочитанных сообщений. Sabaton - World War Live-Battle of the Baltic Sea (Live) [2011, Power Metal, MP3]

PriZraK

0 | 1

293.19 МБ

В этой теме нет новых непрочитанных сообщений. Speaking To Stones - Elements [2012, Progressive Metal, MP3]

PriZraK

0 | 1

132.38 МБ

В этой теме нет новых непрочитанных сообщений. Mindtech - Elements of Warfare [2013, Progressive Metal, MP3]

PriZraK

0 | 1

102.95 МБ

В этой теме нет новых непрочитанных сообщений. Warmen - First Of The Five Elements [2014, Neoclassical, Melodic Power Metal, MP3]

PriZraK

10 | 3

109 МБ

В этой теме нет новых непрочитанных сообщений. Fuck You And Die - Elements Of Instability [2014, Technical Death Metal, MP3]

PriZraK

0 | 1

82.79 МБ


Начать новую тему Ответить на тему  [ 1 сообщение ] 




Для Мосгорсуда, Роскомнадзора и рекламодателей:: mosgorsud-torrent[собачка]yandex.ru