Торрент файл
скачать торрент магнет ссылка Добавлен: 08 янв 2012, 03:32
Размер: 4.38 ГБ
Сидеров: 0
Личеров: 4
Автор

СообщениеДобавлено: 08 янв 2012, 03:32 

Не в сети
Супермодератор
Аватара пользователя
Дата регистрации:
22 май 2010, 11:03
Возраст: 31
Спасибо: 7509 / 13
Сообщения: 49940
Tarja Turunen & Harus - In Concert - Live At Sibelius Hall

Формат: DVD5, DVD Video, MPEG2, AC3, DTS
Песня: In Concert - Live At Sibelius Hall
Жанр: Classical
Продолжительность: 01:37:16
Год выпуска: 2011
Видео: MPEG 2 VIDEO, 720*576 ( PAL 16:9), 25.00 fps,~ 4605 kbps avg, 0.444 bit/pixel
Аудио #1: 48.0 khz, AC 3, 2 ch, 224 kbps avg
Аудио #2: 48.0 khz, AC 3, 6 ch, 448 kbps avg
Аудио #3: 48.0 khz, DTS, 6 ch, 1510 kbps avg
Доп. информация: Концерт в Лахти, Финляндия. 7 декабря 2009 года. Интервью, фотогалерея.


На официальном сайте Tarja Turunen опубликовала следующую информацию:

"Существует древняя финская традиция, касающаяся новорожденных — ребенку не дают имя до церемонии Крещения и его или ее представления семье с уже выбранным именем.

Несколько лет назад, в 2006 году, у Tarja появился новый проект и следуя той же традиции, настало время для его крещения, представления семье и присвоении имени — HARUS

Тарья Турунен и Harus - это уникальная смесь органа, электрогитары, перкуссии и голоса. Благодаря особой манере Тарьи, придающей ее музыке теплоту и мягкость, альбом понравится как преданным поклонниками певицы, так и любителям классической музыки. За Тарьей прочно закрепился статус звезды в рамках тяжелой музыки. Harus позволит ей, смешивая различные жанры и музыкальные культуры, начать новое путешествие.

В переводе с финского - "harus", специфическое и редко употребляемое слово, означает четыре троса, удерживающие палатку, или трос, удерживающий мачту на парусном судне. Оба значение помогают описать новый проект Тарьи: четыре равнозначных музыканта четырех различных школ создают изысканную классическую музыку, в которой традиция и эксперимент идут рука об руку.

"В 2006 году состоялось наше первое совместное выступление. Нам настолько понравилось, что мы решили выступать и дальше. Название мы придумали значительно позже, когда настало время официально заявить о проекте. Особенностью Harus является то, что каждое наше выступление пропитано магией. Мы вольны черпать вдохновение в своих эмоциях. И мы надеемся передать частичку этого настроение в нашем концертом альбоме", - говорит Тарья Турунен.

Тарья Турунен и Harus это:

Tarja Turunen - вокал
Kalevi Kiviniemi - орган
Marzi Nyman - гитара
Markku Krohn - перкуссия
01. Heinillä härkien

Music Trad. Lyrics Martti Korpilahti
Arrangement Olli Ahvenlahti, Kalevi Kiviniemi, Marzi Nyman

02.Ave Maria Op. 80

Music Luigi Luzzi, Lyrics Trad.
Arrangement Jarkko Kiiski (percussion), Kalevi Kiviniemi (organ)

03.Varpunen jouluaamuna

Music Otto Kotilainen, Lyrics Zacharias Topelius (Finnish Lyrics K.A. Hougberg)
Arrangement Marzi Nyman (guitar)

04.Maa on niin kaunis

Music Trad. Lyrics Bernhard Ingemann (Finnish Lyrics Hilja Haahti)
Arrangement Anders Öhrwall, Marzi Nyman (guitar)

05. Concert etude

Franz Liszt
Arrangement Kalevi Kiviniemi

06.En etsi valtaa loistoa

Music Jean Sibelius, Lyrics Zacharias Topelius
Arrangement Marzi Nyman (guitar)

07.Arkihuolesi kaikki heitä

Music Leevi Madetoja, Lyrics Alpo Noponen
Arrangement Marzi Nyman

08.Improvisation on Christmas themes

Kalevi Kiviniemi

09. Ave Maria

Music Tarja Turunen, Lyrics Trad.
Arrangement Kalevi Kiviniemi, Marzi Nyman

10.You would have loved this

Cori Connors
Arrangement Marzi Nyman

11. Astral bells

Markku Krohn, Marzi Nyman, Kalevi Kiviniemi

12.Ave Maria

Music Giulio Caccini, Lyrics Trad.
Arrangement Marzi Nyman, Jarkko Kiiski, Kalevi Kiviniemi

13.Walking in the air

Howard Blake
Arrangement Marzi Nyman, Kalevi Kiviniemi

14. Jouluyo, juhlayo (Silent Night)

Music Franz Gruber, Lirics Joseph Mohr
Arrangement Marzi Nyman, Kalevi Kiviniemi
Общее
Полное имя: D:\Torrents\Download\Tarja Turunen & Harus - In Concert - Live At Sibelius Hall\VIDEO_TS\VTS_03_1.VOB
Формат: MPEG-PS
Размер файла: 1024 Мбайт
Продолжительность: 20 м.
Общий поток: 6925 Кбит/сек
Библиотека кодирования: encoded by TMPGEnc 4.0 XPress Version. 4.7.7.307

Видео
Идентификатор: 224 (0xE0)
Формат: MPEG Video
Версия формата: Version 2
Профиль формата: Main@Main
Параметр BVOP формата: Да
Параметр матрицы формата: По умолчанию
Параметры GOP формата: M=3, N=13
Продолжительность: 20 м.
Вид битрейта: Переменный
Битрейт: 4605 Кбит/сек
Номинальный битрейт: 7500 Кбит/сек
Ширина: 720 пикс.
Высота: 576 пикс.
Соотношение сторон: 16:9
Частота кадров: 25,000 кадр/сек
Стандарт вещания: PAL
Цветовое пространство: YUV
Подвыборка цветности: 4:2:0
Битовая глубина: 8 бит
Тип развёртки: Прогрессивная
Метод сжатия: С потерями
Бит/(Пиксели*Кадры): 0.444
Размер потока: 681 Мбайт (67%)
Библиотека кодирования: TMPGEnc XPress 4.7.7.307

Аудио #1
Идентификатор: 128 (0x80)
Формат: AC-3
Формат/Информация: Audio Coding 3
Расширение режима: CM (complete main)
Продолжительность: 20 м.
Вид битрейта: Постоянный
Битрейт: 224 Кбит/сек
Каналы: 2 канала
Расположение каналов: Front: L R
Частота: 48,0 КГц
Битовая глубина: 16 бит
Метод сжатия: С потерями
Размер потока: 33,1 Мбайт (3%)

Аудио #2
Идентификатор: 129 (0x81)
Формат: AC-3
Формат/Информация: Audio Coding 3
Расширение режима: CM (complete main)
Продолжительность: 20 м.
Вид битрейта: Постоянный
Битрейт: 448 Кбит/сек
Каналы: 6 каналов
Расположение каналов: Front: L C R, Side: L R, LFE
Частота: 48,0 КГц
Битовая глубина: 16 бит
Метод сжатия: С потерями
Размер потока: 66,2 Мбайт (6%)

Аудио #3
Идентификатор: 138 (0x8A)
Формат: DTS
Формат/Информация: Digital Theater Systems
Продолжительность: 20 м.
Вид битрейта: Постоянный
Битрейт: 1510 Кбит/сек
Каналы: 6 каналов
Расположение каналов: Front: L C R, Side: L R, LFE
Частота: 48,0 КГц
Битовая глубина: 16 бит
Метод сжатия: С потерями
Размер потока: 223 Мбайт (22%)

Меню









[b]Поделиться:




реклама партнёра


Вернуться к началу
 Профиль Отправить личное сообщение  
 
   Похожие торренты   Автор   Торрент   Размер 
В этой теме нет новых непрочитанных сообщений. Tarja Turunen & Harus - In Concert Live At Sibelius Hall [2011, Symphonic Classical,Gothic Metal, MP3]

PriZraK

2 | 1

136.64 МБ

В этой теме нет новых непрочитанных сообщений. Tarja Turunen & Mike Terrana - Beauty & The Beat [2014, Neo-Classical, MP3]

PriZraK

3 | 1

225.29 МБ

В этой теме нет новых непрочитанных сообщений. Tarja Turunen - Act I (Live) [2012, Symphonic Metal, MP3]

PriZraK

2 | 1

285.16 МБ

В этой теме нет новых непрочитанных сообщений. Tarja Turunen - Into The Sun (Single) [13.07.2012, Symphonic Metal, MP3]

PriZraK

0 | 1

10.39 МБ

В этой теме нет новых непрочитанных сообщений. Tarja Turunen - Henkays Ikuisuudesta [2006, Symphonic Metal, MP3]

PriZraK

3 | 3

299.71 МБ

В этой теме нет новых непрочитанных сообщений. Duran Duran - A Diamond in the Mind (Live In Concert 2011) [2012, Rock, MP3]

PriZraK

0 | 2

166.74 МБ

В этой теме нет новых непрочитанных сообщений. Argent - Encore Live in Concert [2008, Progressive Rock, MP3]

PriZraK

0 | 1

226.49 МБ


Начать новую тему Ответить на тему  [ 1 сообщение ] 




Для Мосгорсуда, Роскомнадзора и рекламодателей:: mosgorsud-torrent[собачка]yandex.ru