Торрент файл
скачать торрент магнет ссылка Добавлен: 08 янв 2012, 03:30
Размер: 3.92 ГБ
Сидеров: 10
Личеров: 11
Автор

СообщениеДобавлено: 08 янв 2012, 03:30 

Не в сети
Супермодератор
Аватара пользователя
Дата регистрации:
22 май 2010, 11:03
Возраст: 37
Спасибо: 7939 / 13
Сообщения: 49828
VA - Лучшее от ELLO Vol. 13


Формат: DVD5, DVD Video, MPEG2, AC3
Песня: Лучшее от ELLO Vol. 13
Жанр: Pop
Продолжительность: 01:56:21
Год выпуска: 2011

Видео: 720х576 (PAL 4:3), 25 fps, MPEG-2, ~4467 kbps avg, 0.431 bit/pixel
Аудио: 48 kHz, АС-3 , 2 ch, 192.00 kbps avg

Доп. информация: Материал взят с канала Ello - который представляет в свою очередь новинки как российской так и зарубежной попсы. Отличный профессиональный музыкальный канал. Здесь можно увидеть как звезд так и совершенно молодых исполнителей. Предлагаю Вашему вниманию Тринадцатую подбороку с этого канала.
01 Ю. Савичева – Сердцебиение
02 Sardor – Stop, Stop
03 А. Цой – Молитва
04 БИС - Твой или ничей
05 Indi - Холодный дождь
06 МакSим - Любовь - это яд
07 Kamon !!! - Метросексуал
08 Т. Родригез - О тебе…
09 Валерия и Н. Басков - Сохранив любовь
10 Пыльца – Кнопка
11 Бумбокс - Пошла вон!
12 Пара Нормальных - Улицы Москвы
13 OKSI - Made in China
14 Т. Недельская - Смелое тело
15 NikitA- Зайчик
16 Ёлка - Около тебя
17 Алсу - Я тебя не придумала
18 Павла – Навсегда
19 Марта - Здравствуй и прощай
20 Камалия – Зонтик
21 Девушка Блонда - La vie est belle
22 ARMIA feat. Dj Mendez - Люби меня
23 С. Сэлем - Никто не сможет вместо
24 Нюша – Выше
25 В. Козловский – Целую
26 K. Melody - Подари любовь
27 Алина Артц - Прекрасная Ложь
28 Братья Грим – Вернись
29 Анна Малышева - Буду ли я...
30 Герр Антон (Herr Anton) - Одинокий мужчина
31 Ключи - Завтра любовь
32 Сати Казанова - Потусторонняя

Общее
Формат: MPEG-PS
Размер файла: 1024 Мбайт
Продолжительность: 30 м.
Общий поток: 4754 Кбит/сек

Видео
Идентификатор: 224 (0xE0)
Формат: MPEG Video
Версия формата: Version 2
Профиль формата: Main@Main
Параметр BVOP формата: Да
Параметр матрицы формата: По умолчанию
Параметры GOP формата: M=3, N=15
Продолжительность: 30 м.
Вид битрейта: Переменный
Битрейт: 4467 Кбит/сек
Номинальный битрейт: 9008 Кбит/сек
Ширина: 720 пикс.
Высота: 576 пикс.
Соотношение сторон: 4:3
Частота кадров: 25,000 кадр/сек
Стандарт вещания: PAL
Цветовое пространство: YUV
Подвыборка цветности: 4:2:0
Битовая глубина: 8 бит
Тип развёртки: Прогрессивная
Метод сжатия: С потерями
Бит/(Пиксели*Кадры): 0.431
Размер потока: 962 Мбайт (94%)

Аудио
Идентификатор: 128 (0x80)
Формат: AC-3
Формат/Информация: Audio Coding 3
Расширение режима: CM (complete main)
Продолжительность: 30 м.
Вид битрейта: Постоянный
Битрейт: 192 Кбит/сек
Канал(ы): 2 канала(ов)
Расположение каналов: Front: L R
Частота: 48,0 КГц
Битовая глубина: 16 бит
Метод сжатия: С потерями
Размер потока: 41,3 Мбайт (4%)












Поделиться:



Вернуться к началу
 Профиль Отправить личное сообщение  
 
   Похожие торренты   Автор   Торрент   Размер 
В этой теме нет новых непрочитанных сообщений. Bree Olson - Care to Donate Some Fluid? / Doctor Adventures Vol.11 (2011) WEBRip

zorgi

1 | 187

640.45 МБ

В этой теме нет новых непрочитанных сообщений. Jenny Simons, Athina & Cathy Heaven - 5 Incredible Orgies Vol.4 / Swingers Orgies Vol.9 (2014) WEB-DLRip

zorgi

28 | 8

712.88 МБ

В этой теме нет новых непрочитанных сообщений. Jalace - Rocco's POV Vol.32 / Rocco One on One Vol.3 (2013) WEB-DL 720p

zorgi

31 | 5

1.36 ГБ

В этой теме нет новых непрочитанных сообщений. Vivid - Поп Звезда / Pop Star (2007) HDRip | Rus

zorgi

4 | 0

2.18 ГБ

В этой теме нет новых непрочитанных сообщений. Vivid - Поп Звезда / Pop Star (2007) HDRip 720p | Rus

zorgi

25 | 11

4.36 ГБ

В этой теме нет новых непрочитанных сообщений. Sum 41 - Underclass Hero [Pop Punk, 2007] FLAC (image+.cue), lossless

Redscarf

10 | 0

378.52 МБ

В этой теме нет новых непрочитанных сообщений. Green Day - Dookie [Pop-Punk, 1994] FLAC (image+.cue), lossless

Redscarf

7 | 0

283.46 МБ


Начать новую тему Ответить на тему  [ 1 сообщение ] 




Для Мосгорсуда, Роскомнадзора и рекламодателей:: rstracker[собака]yandex.ru
cron