Торрент файл
скачать торрент магнет ссылка Добавлен: 08 янв 2012, 03:29
Размер: 6.91 ГБ
Сидеров: 3
Личеров: 13
Автор

СообщениеДобавлено: 08 янв 2012, 03:29 

Не в сети
Супермодератор
Аватара пользователя
Дата регистрации:
22 май 2010, 11:03
Возраст: 32
Спасибо: 7690 / 13
Сообщения: 49871
Pink Floyd - Knebworth (Special Edition)


Формат: 2xDVD5, DVD Video, MPEG2, AC3, PCM
Песня: Knebworth (Special Edition)
Жанр: Progressive Rock
Продолжительность: 01:34:34
Год выпуска: 1990

DVD 1
Видео: 720х480 (NTSC 4:3), 29,970 fps, MPEG-2, ~9396 kbps avg, 0.907 bit/pixel
Аудио: 48 kHz, AC-3 , 2 ch (Front: L R), 448.00 kbps avg

DVD 2
Видео: 720х480 (NTSC 4:3), 29,970 fps, MPEG-2, 8000 kbps avg, 0.772 bit/pixel
Аудио: 48 kHz, PCM , 2 ch (Front: L R), 1536.00 kbps avg

Доп. информация:
DVD1 содержит запись взятую с трансляции по MTV
DVD2 содержит 2-е песни, взятые с официального релиза (с VHS) и несколько бонусов


Треклист:
DVD1:
1. Shine On You Crazy Diamond
2. Sorrow
3. Wish You Were Here
4. Comfortably Numb
5. Run Like Hell
DVD2:
1. Shine On You Crazy Diamond
2. Run Like Hell
Bonus:
3. Video Anthology
4. Lost In The Woods
5. Money (Slide-Show)


Knebworth, Хартфордшир, 30 июня 1990. 120 000 поклонников собрались на благотворительный концерт, чтобы помочь Центру музыкальной терапии Нордофф-Роббинса и Лондонская школа исполнительского искусства и технологий. Этот невероятный благотворительный концерт был большим успехом из-за высокой энергии, внушающей страх исполнителей таких легенд рок-н-ролла как: Paul McCartney, Phil Collins, Eric Clapton, Elton John, Mark Knopfler, Robert Plant, Jimmy Page, Status Quo, Tears For Fears, Cliff Richard& The Shadows и конечно, PINK FLOYD.

Pink Floyd исполнили семь песен во время этого шоу, но выпущенный VHS, Лазерный Диск и DVD этого концерта показали только два из семи выступлений Pink Floyd - Shine On Wou Crazy Diamond and Run Like Hell. Приватный специальный выпуск Knebworth '90 подарил все пять из снятых выступлений Pink Floyd как представлено для телевидения MTV: Shine On Wou Crazy Diamond, Sorrow, Wish You Were Here, Comfortably Numb and Run Like Hell. Казалось бы, что нет никакого известного фильма других двух клипов.

Второй диск показывает 20 мин. предварительного концерта, антология видео Knebworth. Памятные вещи Knebworth показа слайд-шоу установлены в одну из "неснятых" песен - Money, в то время как второй "неснятый" клип - The Great Gig In The Sky - воспроизводится позади вводного меню этого диска. Это означает, что все семь клипов делают пакет. Завершение второго диска является официальные клипы Shine On You Crazy Diamond and Run Like Hell.


Общее
Полное имя: C:\Tfile\pink_floyd_knebworth_[tfile.ru]\Pink Floyd - Knebworth 90 - Disc1\VIDEO_TS\VTS_01_1.VOB
Формат: MPEG-PS
Размер файла: 1024 Мбайт
Продолжительность: 14 м.
Общий поток: 9767 Кбит/сек

Видео
Идентификатор: 224 (0xE0)
Формат: MPEG Video
Версия формата: Version 2
Профиль формата: Main@Main
Параметр BVOP формата: Да
Параметр матрицы формата: По умолчанию
Параметры GOP формата: M=3, N=15
Продолжительность: 14 м.
Вид битрейта: Переменный
Битрейт: 9396 Кбит/сек
Ширина: 720 пикс.
Высота: 480 пикс.
Соотношение сторон: 4:3
Частота кадров: 29,970 кадр/сек
Стандарт вещания: NTSC
Цветовое пространство: YUV
Подвыборка цветности: 4:2:0
Битовая глубина: 8 бит
Тип развёртки: Чересстрочная
Порядок развёртки: Верхнее поле первое
Метод сжатия: С потерями
Бит/(Пиксели*Кадры): 0.907
Размер потока: 957 Мбайт (93%)

Аудио
Идентификатор: 128 (0x80)
Формат: AC-3
Формат/Информация: Audio Coding 3
Расширение режима: CM (complete main)
Продолжительность: 14 м.
Вид битрейта: Постоянный
Битрейт: 448 Кбит/сек
Канал(ы): 2 канала(ов)
Расположение каналов: Front: L R
Частота: 48,0 КГц
Битовая глубина: 16 бит
Метод сжатия: С потерями
Задержка видео: -66 мс.
Размер потока: 47,0 Мбайт (5%)

Общее
Полное имя: C:\Tfile\pink_floyd_knebworth_[tfile.ru]\Pink Floyd - Knebworth 90 - Disc2\VIDEO_TS\VTS_01_1.VOB
Формат: MPEG-PS
Размер файла: 900 Мбайт
Продолжительность: 12 м.
Общий поток: 9701 Кбит/сек

Видео
Идентификатор: 224 (0xE0)
Формат: MPEG Video
Версия формата: Version 2
Профиль формата: Main@Main
Параметр BVOP формата: Да
Параметр матрицы формата: По умолчанию
Параметры GOP формата: M=3, N=16
Продолжительность: 12 м.
Вид битрейта: Постоянный
Битрейт: 8000 Кбит/сек
Ширина: 720 пикс.
Высота: 480 пикс.
Соотношение сторон: 4:3
Частота кадров: 29,970 кадр/сек
Стандарт вещания: NTSC
Цветовое пространство: YUV
Подвыборка цветности: 4:2:0
Битовая глубина: 8 бит
Тип развёртки: Чересстрочная
Порядок развёртки: Верхнее поле первое
Метод сжатия: С потерями
Бит/(Пиксели*Кадры): 0.772
Размер потока: 740 Мбайт (82%)

Аудио
Идентификатор: 160 (0xA0)
Формат: PCM
Параметр Endianness формата: Big
Параметр Sign формата: Signed
Режим смешивания: DVD-Video
Продолжительность: 12 м.
Вид битрейта: Постоянный
Битрейт: 1536 Кбит/сек
Канал(ы): 2 канала(ов)
Расположение каналов: Front: L R
Частота: 48,0 КГц
Битовая глубина: 16 бит
Размер потока: 142 Мбайт (16%)


DVD 1 [00:41:58]







DVD 2 [00:52:36]







Поделиться:




реклама партнёра


Вернуться к началу
 Профиль Отправить личное сообщение  
 
   Похожие торренты   Автор   Торрент   Размер 
В этой теме нет новых непрочитанных сообщений. The Whispered World: Special Edition [Adventure, 2014] [Steam-Rip]

Sykre

1 | 1

2.18 ГБ

В этой теме нет новых непрочитанных сообщений. The Elder Scrolls V: Skyrim Special Edition [RPG,3D,2016] [Лицензия]

DuraAce

1 | 0

10.96 ГБ

В этой теме нет новых непрочитанных сообщений. Devil May Cry 4: Special Edition [Action, Slasher, 3D, 3rd-Person, 2015] [RePack]

Sykre

5 | 2

5.09 ГБ

В этой теме нет новых непрочитанных сообщений. RAID: World War II - Special Edition [Action, Adventure, RPG, 2017] [RePack]

salma3

536 | 222

7.39 ГБ

В этой теме нет новых непрочитанных сообщений. Shadow Warrior Special Edition [Action (Shooter), 3D, 1st Person, 2013] [RePack]

Sykre

9 | 2

4.54 ГБ

В этой теме нет новых непрочитанных сообщений. Чужой 3 / Alien 3 [Ужасы, фантастика, боевик, 1992] BDRip-HEVC 1080p, Dub [Special Edition]

salma3

16 | 4

8.08 ГБ

В этой теме нет новых непрочитанных сообщений. Zombie Night Terror: Special Edition [ Logic, Strategy, Puzzle, Horror, 2016] [Steam-Rip]

Sykre

2 | 1

1.37 ГБ


Начать новую тему Ответить на тему  [ 1 сообщение ] 




Для Мосгорсуда, Роскомнадзора и рекламодателей:: mosgorsud-torrent[собачка]yandex.ru