Торрент файл
скачать торрент магнет ссылка Добавлен: 08 янв 2012, 03:29
Размер: 4.24 ГБ
Сидеров: 3
Личеров: 9
Автор

СообщениеДобавлено: 08 янв 2012, 03:29 

Не в сети
Супермодератор
Аватара пользователя
Дата регистрации:
22 май 2010, 11:03
Возраст: 31
Спасибо: 7509 / 13
Сообщения: 49940
Ария - Сделано в России

Формат: DVD5, DVD Video, MPEG2, AC3, DTS
Песня: Сделано в России
Жанр: Heavy Metal
Продолжительность: 01:17:16
Год выпуска: 2004
Видео: MPEG 2 VIDEO, 720*480 (NTSC 4:3), 29.97 fps, ~5140 kbps avg, 0,496 bit/pixel
Аудио #1: 48,0 khz, AC 3, 6 ch, 448 kbps avg
Аудио #2: 48.0 khz, DTS, 6 ch, 1510 kbps avg

Доп. информация: Первый концертный DVD группы Ария. Концерт изначально был выпущен на VHS в 1997 году, в 2004 переиздан на DVD студией Moroz Records.
    Состав
Валерий Кипелов - вокал
Владимир Холстинин - гитара
Сергей Терентьев - гитара
Виталий Дубинин - бас
Александр Манякин - барабаны
    Треклист
01. Рабство иллюзий
02. Раскачаем этот мир
03. Король дороги
04. Антихрист
05. Ангельская пыль
06. Дух войны
07. Ночь короче дня
08. Возьми мое сердце
09. Прощай, Норфолк
10. Волонтер
11. Тореро
12. Герой асфальта
13. Улица роз
Общее
Полное имя: D:\Video\Arija - Made In Russia\VIDEO_TS\VTS_04_1.VOB
Формат: MPEG-PS
Размер файла: 1024 Мбайт
Продолжительность: 19 м.
Общий поток: 7242 Кбит/сек

Видео
Идентификатор: 224 (0xE0)
Формат: MPEG Video
Версия формата: Version 2
Профиль формата: Main@Main
Параметр BVOP формата: Да
Параметр матрицы формата: По умолчанию
Параметры GOP формата: M=2, N=4
Продолжительность: 19 м.
Вид битрейта: Постоянный
Битрейт: 5140 Кбит/сек
Номинальный битрейт: 7000 Кбит/сек
Ширина: 720 пикс.
Высота: 480 пикс.
Соотношение сторон: 4:3
Частота кадров: 29,970 кадр/сек
Стандарт вещания: NTSC
Цветовое пространство: YUV
Подвыборка цветности: 4:2:0
Битовая глубина: 8 бит
Тип развёртки: Чересстрочная
Порядок развёртки: Верхнее поле первое
Метод сжатия: С потерями
Бит/(Пиксели*Кадры): 0.496
Размер потока: 727 Мбайт (71%)

Аудио #1
Идентификатор: 128 (0x80)
Формат: AC-3
Формат/Информация: Audio Coding 3
Расширение режима: CM (complete main)
Продолжительность: 19 м.
Вид битрейта: Постоянный
Битрейт: 448 Кбит/сек
Каналы: 6 каналов
Расположение каналов: Front: L C R, Side: L R, LFE
Частота: 48,0 КГц
Битовая глубина: 16 бит
Метод сжатия: С потерями
Задержка видео: 100 мс.
Размер потока: 63,3 Мбайт (6%)

Аудио #2
Идентификатор: 137 (0x89)
Формат: DTS
Формат/Информация: Digital Theater Systems
Продолжительность: 19 м.
Вид битрейта: Постоянный
Битрейт: 1510 Кбит/сек
Каналы: 6 каналов
Расположение каналов: Front: L C R, Side: L R, LFE
Частота: 48,0 КГц
Битовая глубина: 24 бит
Метод сжатия: С потерями
Задержка видео: 100 мс.
Размер потока: 213 Мбайт (21%)

Меню

















[b]Поделиться:




реклама партнёра


Вернуться к началу
 Профиль Отправить личное сообщение  
 
   Похожие торренты   Автор   Торрент   Размер 
В этой теме нет новых непрочитанных сообщений. Ария - Классическая Ария [2002, Heavy Metal, MP3]

PriZraK

17 | 5

71.92 МБ

В этой теме нет новых непрочитанных сообщений. Ария - Эхо судного дня (Live) [2011, Heavy Metal, MP3]

PriZraK

2 | 5

260.44 МБ

В этой теме нет новых непрочитанных сообщений. VA - A Tribute to Ария. XXV [2010, Heavy metal, MP3 320kbps]

PriZraK

5 | 4

326.49 МБ

В этой теме нет новых непрочитанных сообщений. Ария - Live In Studio [2012, Heavy Metal, MP3]

PriZraK

9 | 6

202.14 МБ

В этой теме нет новых непрочитанных сообщений. Ария - Коллекция легендарных песен [2011, Heavy Metal, MP3]

PriZraK

165 | 9

552.86 МБ

В этой теме нет новых непрочитанных сообщений. Ария - В жёлтом круге арены (Live) [2012, Heavy Metal, MP3]

PriZraK

9 | 6

264.33 МБ

В этой теме нет новых непрочитанных сообщений. Ария - Через все времена [Hard Rock, Heavy Metal, 2014] FLAC

Dracon

142 | 2

482.27 МБ


Начать новую тему Ответить на тему  [ 1 сообщение ] 




Для Мосгорсуда, Роскомнадзора и рекламодателей:: mosgorsud-torrent[собачка]yandex.ru