Торрент файл
скачать торрент магнет ссылка Добавлен: 08 янв 2012, 03:29
Размер: 11.89 ГБ
Сидеров: 9
Личеров: 12
Автор

СообщениеДобавлено: 08 янв 2012, 03:29 

Не в сети
Супермодератор
Аватара пользователя
Дата регистрации:
22 май 2010, 11:03
Возраст: 32
Спасибо: 7690 / 13
Сообщения: 49871
Within Temptation - The Silent Force Tour

Формат: DVD9 + DVD5, DVD Video, MPEG2, AC3
Песня: The Silent Force Tour
Жанр: Gothic Metal
Продолжительность: 02:07:01 + 03:16:14
Год выпуска: 2005

Доп. информация:В DVD вошли съемки с турне в поддержку альбома «The Silent Force»: три концерта, один из которых записан полностью, фотогалерея, интервью и видеоклипы.
    Состав
Sharon Janny den Adel - vocals
Robert Westerholt - guitars
Rudolf Adrianus Jolie - guitars
Jeroen van Veen - bass
Martinus Johannes Everardus Spierenburg - keyboards
Stephen van Haestregt - drums
    DVD 9

Видео: MPEG 2 VIDEO, 720*576 (PAL 4:3), 25.0 fps, ~7888 kbps, 0,761 bit/pixel
Аудио #1: 48.0 khz, AC 3, 2 ch, 224 kbps
Аудио #2: 48.0 khz, AC 3, 6 ch, 448 kbps

Live concert: Java Eiland, Amsterdam, 2005

1. Deceiver of Fools
2. Stand My Ground
3. Jillian (I'd Give My Heart)
4. It's the Fear
5. Forsaken
6. Angels
7. Towards The End
8. Memories
9. Intro
10. See Who I Am
11. Aquarius
12. Pale
13. Jane Doe
14. Caged
15. Mother Earth
16. Candles
17. The Other Half (Of Me)
18. Ice Queen

Live concert: Live 05, Finland, 2005

1. Memories
2. Angels
3. Stand My Ground

Live concert: Werchter, Belgium, 2005

1. Ice Queen
2. See Who I Am
3. Stand My Ground

Music video's

1. Stand My Ground
2. Memories
3. Angels
Общее
Полное имя: D:\Video\Within Temptation - The Silent Force Tour\DVD 1\VIDEO_TS\VTS_01_1.VOB
Формат: MPEG-PS
Размер файла: 1024 Мбайт
Продолжительность: 16 м.
Общий поток: 8734 Кбит/сек

Видео
Идентификатор: 224 (0xE0)
Формат: MPEG Video
Версия формата: Version 2
Профиль формата: Main@Main
Параметр BVOP формата: Да
Параметр матрицы формата: По умолчанию
Параметры GOP формата: M=3, N=12
Продолжительность: 16 м.
Вид битрейта: Переменный
Битрейт: 7888 Кбит/сек
Номинальный битрейт: 8900 Кбит/сек
Ширина: 720 пикс.
Высота: 576 пикс.
Соотношение сторон: 4:3
Частота кадров: 25,000 кадр/сек
Стандарт вещания: PAL
Цветовое пространство: YUV
Подвыборка цветности: 4:2:0
Битовая глубина: 8 бит
Тип развёртки: Чересстрочная
Порядок развёртки: Верхнее поле первое
Метод сжатия: С потерями
Бит/(Пиксели*Кадры): 0.761
Размер потока: 925 Мбайт (90%)

Аудио #1
Идентификатор: 128 (0x80)
Формат: AC-3
Формат/Информация: Audio Coding 3
Расширение режима: CM (complete main)
Продолжительность: 16 м.
Вид битрейта: Постоянный
Битрейт: 224 Кбит/сек
Каналы: 2 канала
Расположение каналов: Front: L R
Частота: 48,0 КГц
Битовая глубина: 16 бит
Метод сжатия: С потерями
Задержка видео: 120 мс.
Размер потока: 26,3 Мбайт (3%)

Аудио #2
Идентификатор: 129 (0x81)
Формат: AC-3
Формат/Информация: Audio Coding 3
Расширение режима: CM (complete main)
Продолжительность: 16 м.
Вид битрейта: Постоянный
Битрейт: 448 Кбит/сек
Каналы: 6 каналов
Расположение каналов: Front: L C R, Side: L R, LFE
Частота: 48,0 КГц
Битовая глубина: 16 бит
Метод сжатия: С потерями
Задержка видео: 120 мс.
Размер потока: 52,5 Мбайт (5%)

Текст
Идентификатор: 32 (0x20)
Формат: RLE
Формат/Информация: Run-length encoding

Меню


















    [b]DVD 5

Видео: MPEG 2 VIDEO, 720*576 (PAL 4:3), 25.0 fps, 3104 kbps, 0,299 bit/pixel
Аудио: 48.0 khz, AC 3, 2 ch, 224 kbps


Backstage footage:

* Tours & Festivals, 2003-2005

The making of:

The album part one
The album part two
Stand My Ground
Memories
Angels

Impressions & interviews:

De Boerderij, TMF Special 2004
Bettina S, Finland 2005
WT in Dubai, TMF special 2005
TMF Awards & MTV Newsflash, The Netherlands 2005
Live 05 interview, The Voice, Finland 2005
Kerrang Radio FM, United Kingdom, 2005

Extra's:

Open Air forest theatre 'Kersouwe' special, The Netherlands 2004
The Java-island special, The Netherlands 2005
Photogallery
Bloopers
Credits
Общее
Полное имя: D:\Video\Within Temptation - The Silent Force Tour\DVD 2\VIDEO_TS\VTS_01_2.VOB
Формат: MPEG-PS
Размер файла: 1024 Мбайт
Продолжительность: 42 м.
Общий поток: 3396 Кбит/сек

Видео
Идентификатор: 224 (0xE0)
Формат: MPEG Video
Версия формата: Version 2
Профиль формата: Main@Main
Параметр BVOP формата: Да
Параметр матрицы формата: По умолчанию
Параметры GOP формата: M=3, N=12
Продолжительность: 42 м.
Вид битрейта: Переменный
Битрейт: 3104 Кбит/сек
Номинальный битрейт: 9200 Кбит/сек
Ширина: 720 пикс.
Высота: 576 пикс.
Соотношение сторон: 4:3
Частота кадров: 25,000 кадр/сек
Стандарт вещания: PAL
Цветовое пространство: YUV
Подвыборка цветности: 4:2:0
Битовая глубина: 8 бит
Тип развёртки: Чересстрочная
Порядок развёртки: Верхнее поле первое
Метод сжатия: С потерями
Бит/(Пиксели*Кадры): 0.299
Размер потока: 936 Мбайт (91%)

Аудио
Идентификатор: 128 (0x80)
Формат: AC-3
Формат/Информация: Audio Coding 3
Расширение режима: CM (complete main)
Продолжительность: 42 м.
Вид битрейта: Постоянный
Битрейт: 224 Кбит/сек
Каналы: 2 канала
Расположение каналов: Front: L R
Частота: 48,0 КГц
Битовая глубина: 16 бит
Метод сжатия: С потерями
Задержка видео: -496 мс.
Размер потока: 67,5 Мбайт (7%)

Меню

















[b]Поделиться:




реклама партнёра


Вернуться к началу
 Профиль Отправить личное сообщение  
 
   Похожие торренты   Автор   Торрент   Размер 
В этой теме нет новых непрочитанных сообщений. Within Temptation: Let Us Burn - Elements & Hydra Live In Concert [Symphonic Metal, Gothic Rock, Power Metal, 2014] BDRemux 1080i

Dracon

32 | 8

20.63 ГБ

В этой теме нет новых непрочитанных сообщений. Сборник клипов - Monsters of Metal Vol. 10 [2016, Black Metal, Death Metal, Gothic, WEBRip]

salma3

181 | 14

7.01 ГБ

В этой теме нет новых непрочитанных сообщений. Städte Tour / Städte Tour / Обзорная экскурсия по городу (Project 54) [2007 г., All sex, Threesome, DVDRip]

salma3

6 | 2

1.3 ГБ

В этой теме нет новых непрочитанных сообщений. Nightwish - Endless Forms Most Beautiful [2015, Gothic Metal, Symphonic Power Metal, MP3]

salma3

0 | 0

180.62 МБ

В этой теме нет новых непрочитанных сообщений. Искушение / Temptation (2017) WEBRip

salma3

53 | 3

1.45 ГБ

В этой теме нет новых непрочитанных сообщений. Искушение / Temptation [Триллер, 1994] DVDRip, Avo

salma3

135 | 32

1.46 ГБ

В этой теме нет новых непрочитанных сообщений. BigTitsAtSchool 17 03 13 Brooke Beretta The Temptation Test XXX 1080p MP4-KTR

salma3

0 | 0

2.89 ГБ


Начать новую тему Ответить на тему  [ 1 сообщение ] 




Для Мосгорсуда, Роскомнадзора и рекламодателей:: mosgorsud-torrent[собачка]yandex.ru