Торрент файл
скачать торрент магнет ссылка Добавлен: 08 янв 2012, 03:27
Размер: 2.41 ГБ
Сидеров: 1
Личеров: 6
Автор

СообщениеДобавлено: 08 янв 2012, 03:27 

Не в сети
Супермодератор
Аватара пользователя
Дата регистрации:
22 май 2010, 11:03
Возраст: 31
Спасибо: 7509 / 13
Сообщения: 49940
Русский размер - Live


Формат: DVD5, DVD Video, MPEG2, MP2
Песня: Live
Жанр: Dance-Pop
Продолжительность: 00:37:46
Год выпуска: 2011

Видео: 720:576 (PAL 4:3), 25 fps, MPEG-2, ~8341 kbps avg, 0.838 bit/pixel
Аудио: 48 kHz, MPEG Audio Layer 2, 2 ch, 384.00 kbps avg

Доп. информация: Группа "Русский Размер" создана в 1993 году в Санкт-Петербурге. Организаторами и первыми участниками группы, стали два друга - Дмитрий Копотилов и Виктор Бондарюк. Одни из пионеров танцевальной, клубной музыки России. В начале 2005. г., вместо покинувшего группу Виктора, в составе Русского Размера появляется новый участник - Игорь Луценко. Группу знают и любят во многих европейских странах, в Объединенном Королевстве, и конечно в Израиле. Сейчас, группа Русский Размер гастролирует и продолжает работу над новыми альбомами и проектами.

Состав группы "Русский Размер":
Элеонора Филимонова
Дмитрий Копотилов
Игорь Луценко
Александр Борисович Борисов (звукооператор)
Ирина Ястребова (директор)


Треклист:
01. Ты не плачь о нем
02. Между небом и землей
03. ЮАЮ
04. Весь этот мир
05. Снег и дождь
06. Бегут года
07. Ангел дня
08. Весна


Общее
Полное имя: C:\Tfile\russkiy_razmer_live_[tfile.ru]\VIDEO_TS\VTS_01_1.VOB
Формат: MPEG-PS
Размер файла: 1024 Мбайт
Продолжительность: 16 м.
Общий поток: 8902 Кбит/сек

Видео
Идентификатор: 224 (0xE0)
Формат: MPEG Video
Версия формата: Version 2
Профиль формата: Main@Main
Параметр BVOP формата: Да
Параметр матрицы формата: По умолчанию
Параметры GOP формата: M=3, N=12
Продолжительность: 16 м.
Вид битрейта: Переменный
Битрейт: 8341 Кбит/сек
Номинальный битрейт: 9008 Кбит/сек
Ширина: 720 пикс.
Высота: 576 пикс.
Соотношение сторон: 4:3
Частота кадров: 24,000 кадр/сек
Стандарт вещания: PAL
Цветовое пространство: YUV
Подвыборка цветности: 4:2:0
Битовая глубина: 8 бит
Тип развёртки: Прогрессивная
Порядок развёртки: 2:2:2:2:2:2:2:2:2:2:2:3 Pulldown
Метод сжатия: С потерями
Бит/(Пиксели*Кадры): 0.838
Размер потока: 959 Мбайт (94%)

Аудио
Идентификатор: 192 (0xC0)
Формат: MPEG Audio
Версия формата: Version 1
Профиль формата: Layer 2
Продолжительность: 16 м.
Вид битрейта: Постоянный
Битрейт: 384 Кбит/сек
Канал(ы): 2 канала(ов)
Частота: 48,0 КГц
Метод сжатия: С потерями
Размер потока: 44,2 Мбайт (4%)









Поделиться:




реклама партнёра


Вернуться к началу
 Профиль Отправить личное сообщение  
 
   Похожие торренты   Автор   Торрент   Размер 
В этой теме нет новых непрочитанных сообщений. Сборник - Музыкальные новинки MP3. Русский выпуск [Pop, Dance, 2014] MP3, 320kbps

Dracon

175 | 11

886.97 МБ

В этой теме нет новых непрочитанных сообщений. Dance Party. Dance! Dance! — Бог Сделал Бы Погромче [2011, Indie, Post-Hardcore, Experimental, Disco, MP3]

PriZraK

0 | 2

86.77 МБ

В этой теме нет новых непрочитанных сообщений. Sabaton - World War Live-Battle of the Baltic Sea (Live) [2011, Power Metal, MP3]

PriZraK

0 | 1

293.19 МБ

В этой теме нет новых непрочитанных сообщений. Размер имеет значение-2 / Das allerbeste Stück [комедия, 2004] SATRip, Mvo

salma3

706 | 89

1.1 ГБ

В этой теме нет новых непрочитанных сообщений. VA - NRJ Hits [House, Dance, Pop, 2014] DVD5

Dracon

1 | 3

3.81 ГБ

В этой теме нет новых непрочитанных сообщений. Size Does Matter 7 / Размер Имеет Значение 7 (Porn Pros) (Addison Avery, Chloe Amour, Dillion Harper, Lexi Davis, Lily Love) [2014 г., All Sex, WEB-DL 404p]

friizze

9 | 5

935.36 МБ

В этой теме нет новых непрочитанных сообщений. Сборник - Dance - Dance - Dance [2015, Dance, Club, MP3]

Nickolas3435

202 | 22

1.14 ГБ


Начать новую тему Ответить на тему  [ 1 сообщение ] 




Для Мосгорсуда, Роскомнадзора и рекламодателей:: mosgorsud-torrent[собачка]yandex.ru