Торрент файл
скачать торрент магнет ссылка Добавлен: 08 янв 2012, 03:27
Размер: 2.41 ГБ
Сидеров: 1
Личеров: 7
Автор

СообщениеДобавлено: 08 янв 2012, 03:27 

Не в сети
Супермодератор
Аватара пользователя
Дата регистрации:
22 май 2010, 11:03
Возраст: 37
Спасибо: 7939 / 13
Сообщения: 49828
Русский размер - Live


Формат: DVD5, DVD Video, MPEG2, MP2
Песня: Live
Жанр: Dance-Pop
Продолжительность: 00:37:46
Год выпуска: 2011

Видео: 720:576 (PAL 4:3), 25 fps, MPEG-2, ~8341 kbps avg, 0.838 bit/pixel
Аудио: 48 kHz, MPEG Audio Layer 2, 2 ch, 384.00 kbps avg

Доп. информация: Группа "Русский Размер" создана в 1993 году в Санкт-Петербурге. Организаторами и первыми участниками группы, стали два друга - Дмитрий Копотилов и Виктор Бондарюк. Одни из пионеров танцевальной, клубной музыки России. В начале 2005. г., вместо покинувшего группу Виктора, в составе Русского Размера появляется новый участник - Игорь Луценко. Группу знают и любят во многих европейских странах, в Объединенном Королевстве, и конечно в Израиле. Сейчас, группа Русский Размер гастролирует и продолжает работу над новыми альбомами и проектами.

Состав группы "Русский Размер":
Элеонора Филимонова
Дмитрий Копотилов
Игорь Луценко
Александр Борисович Борисов (звукооператор)
Ирина Ястребова (директор)


Треклист:
01. Ты не плачь о нем
02. Между небом и землей
03. ЮАЮ
04. Весь этот мир
05. Снег и дождь
06. Бегут года
07. Ангел дня
08. Весна


Общее
Полное имя: C:\Tfile\russkiy_razmer_live_[tfile.ru]\VIDEO_TS\VTS_01_1.VOB
Формат: MPEG-PS
Размер файла: 1024 Мбайт
Продолжительность: 16 м.
Общий поток: 8902 Кбит/сек

Видео
Идентификатор: 224 (0xE0)
Формат: MPEG Video
Версия формата: Version 2
Профиль формата: Main@Main
Параметр BVOP формата: Да
Параметр матрицы формата: По умолчанию
Параметры GOP формата: M=3, N=12
Продолжительность: 16 м.
Вид битрейта: Переменный
Битрейт: 8341 Кбит/сек
Номинальный битрейт: 9008 Кбит/сек
Ширина: 720 пикс.
Высота: 576 пикс.
Соотношение сторон: 4:3
Частота кадров: 24,000 кадр/сек
Стандарт вещания: PAL
Цветовое пространство: YUV
Подвыборка цветности: 4:2:0
Битовая глубина: 8 бит
Тип развёртки: Прогрессивная
Порядок развёртки: 2:2:2:2:2:2:2:2:2:2:2:3 Pulldown
Метод сжатия: С потерями
Бит/(Пиксели*Кадры): 0.838
Размер потока: 959 Мбайт (94%)

Аудио
Идентификатор: 192 (0xC0)
Формат: MPEG Audio
Версия формата: Version 1
Профиль формата: Layer 2
Продолжительность: 16 м.
Вид битрейта: Постоянный
Битрейт: 384 Кбит/сек
Канал(ы): 2 канала(ов)
Частота: 48,0 КГц
Метод сжатия: С потерями
Размер потока: 44,2 Мбайт (4%)









Поделиться:



Вернуться к началу
 Профиль Отправить личное сообщение  
 
   Похожие торренты   Автор   Торрент   Размер 
В этой теме нет новых непрочитанных сообщений. VA - Record Super Chart / 14.08.2021 [2021 г., Dance, Pop, MP3]

zorgi

9 | 1

230.7 МБ

В этой теме нет новых непрочитанных сообщений. Мариуполь. Русский город [2022, Документальный, WEB-DLRip]

zorgi

0 | 0

2.25 ГБ

В этой теме нет новых непрочитанных сообщений. Ксения Нестерова - Русский кулак / Kseniya Nesterova - Russian Fist (2006) SiteRip

zorgi

5 | 0

165.81 МБ

В этой теме нет новых непрочитанных сообщений. [BrazzersExxtra.com / Brazzers.com] Adriana Chechik (Недовольная госпожа часть 2 (Бесцензурный русский перевод)) [2020, Anal, DP, Threesome, All Sex, Blowjob, rus, 720p]

salma3

1 | 0

346.09 МБ

В этой теме нет новых непрочитанных сообщений. Противоположный пол, и как с ним жить / The Opposite Sex and How to Live with Them [мелодрама, комедия, 1992] WEBRip, Avo

salma3

0 | 0

1.45 ГБ

В этой теме нет новых непрочитанных сообщений. Armin van Buuren - Live at Tomorrowland 2020 NYE [2020 г., Trance, WEBRip 1080p]

zorgi

9 | 0

398.56 МБ

В этой теме нет новых непрочитанных сообщений. Последний танец / Last dance [Драма, триллер, 1996] BDRip 720p, Mvo

salma3

0 | 0

4.95 ГБ


Начать новую тему Ответить на тему  [ 1 сообщение ] 




Для Мосгорсуда, Роскомнадзора и рекламодателей:: rstracker[собака]yandex.ru
cron