Торрент файл
скачать торрент магнет ссылка Добавлен: 08 янв 2012, 03:25
Размер: 4.23 ГБ
Сидеров: 11
Личеров: 8
Автор

СообщениеДобавлено: 08 янв 2012, 03:25 

Не в сети
Супермодератор
Аватара пользователя
Дата регистрации:
22 май 2010, 11:03
Возраст: 31
Спасибо: 7509 / 13
Сообщения: 49940
VA - Дискотека 80-х. Песни моей мамы Vol. 8

Формат: DVD5, DVD Video, MPEG2, AC3
Песня: Дискотека 80-х. Песни моей мамы Vol. 8
Жанр: Disco, Pop
Продолжительность: 01:54:41
Год выпуска: 1978-1996

Видео: 720х576 (PAL 4:3), 25 fps, MPEG-2, ~4221 kbps avg, 0.407 bit/pixel
Аудио: 48 kHz, AC-3 , 2 ch, 192.00 kbps avg

Доп. информация: В восьмой альбоме продолжение подборки песен, которые помогут создать картину событий прошлого и вспомнить - как наши мамы проводили свой досуг на дискотеке 80-х в великой стране которой больше нет - в СССР.
01 Машина Времени - Музыка под снегом (1986)
02 В. Казаченко - Бог тебя накажет (1991)
03 М. Боярский - Всё пройдёт (1982)
04 К. Пахомов - Люблю (1991)
05 Здравствуй песня - Пусть завтра (197
06 Е. Болдышева и Мираж - Не в первый раз (1992)
07 Анонс - Капитаны (1989)
08 Е. Семёнова - Купаюсь в любви (1993)
09 В. Леонтьев - Зелёный свет (1984)
10 Я. Евдокимов - Фантазер (1989)
11 Альфа и С. Сарычев - Воробей (1986)
12 И. Шведова - Белый вальс (1990)
13 В. Малежик - Провинциалка (1989)
14 Т. Буланова - Гори, гори моя звезда (1996)
15 А. Державин - Брат (1993)
16 Ю. Петлюра - Дождь (1995)
17 Наутилус Помпилиус - Скованные одной цепью (1988)
18 А. Пугачева - Волшебник недоучка (197
19 Шериф - Где же ты (1991)
20 В. Кузьмин - Я не забуду тебя (1993)
21 Л. Долина - Льдинка (1988)
22 Верасы - Белый снег (1982)
23 К. Никольский - Ночная птица (1992)
24 Рок-Ателье - Не торопись (1986)
25 Ю. Чернавский - Я робот (1983)
26 Кино - Группа крови (1988)
27 С. Беликов - У беды глаза зеленые (1994)
28 Браво - Московский бит (1992)
29 В. Пресняков - Острова (1986)
30 А. Герман - Эхо любви (1987)

Общее
Полное имя: C:\Tfile\pesni_moej_mamy_vol8_[tfile.ru]\VIDEO_TS\VTS_01_1.VOB
Формат: MPEG-PS
Размер файла: 1024 Мбайт
Продолжительность: 31 м.
Общий поток: 4503 Кбит/сек

Видео
Идентификатор: 224 (0xE0)
Формат: MPEG Video
Версия формата: Version 2
Профиль формата: Main@Main
Параметр BVOP формата: Да
Параметр матрицы формата: По умолчанию
Параметры GOP формата: M=3, N=15
Продолжительность: 31 м.
Вид битрейта: Переменный
Битрейт: 4221 Кбит/сек
Номинальный битрейт: 9008 Кбит/сек
Ширина: 720 пикс.
Высота: 576 пикс.
Соотношение сторон: 4:3
Частота кадров: 25,000 кадр/сек
Стандарт вещания: PAL
Цветовое пространство: YUV
Подвыборка цветности: 4:2:0
Битовая глубина: 8 бит
Тип развёртки: Прогрессивная
Метод сжатия: С потерями
Бит/(Пиксели*Кадры): 0.407
Размер потока: 960 Мбайт (94%)

Аудио
Идентификатор: 128 (0x80)
Формат: AC-3
Формат/Информация: Audio Coding 3
Расширение режима: CM (complete main)
Продолжительность: 31 м.
Вид битрейта: Постоянный
Битрейт: 192 Кбит/сек
Канал(ы): 2 канала(ов)
Расположение каналов: Front: L R
Частота: 48,0 КГц
Битовая глубина: 16 бит
Метод сжатия: С потерями
Размер потока: 43,7 Мбайт (4%)













Поделиться:




реклама партнёра


Вернуться к началу
 Профиль Отправить личное сообщение  
 
   Похожие торренты   Автор   Торрент   Размер 
В этой теме нет новых непрочитанных сообщений. VA - Дискотека 80-90х по-новому 2 [2015, Disco, Pop, MP3]

Nickolas3435

647 | 15

1002.89 МБ

В этой теме нет новых непрочитанных сообщений. VA - Легендарная дискотека 90-х [2014, Disco, Dance, Pop, MP3]

Nickolas3435

986 | 21

720.01 МБ

В этой теме нет новых непрочитанных сообщений. VA - Турбо дискотека 50 на 50 [Pop, Disco, 2014] MP3, 256kbps

Dracon

49 | 4

671.01 МБ

В этой теме нет новых непрочитанных сообщений. Сборник - Назад В СССР - Дискотека 80-х, 90-х [2014, Pop, Disco, MP3]

Nickolas3435

926 | 35

699.56 МБ

В этой теме нет новых непрочитанных сообщений. Сборник - Зарубежная Дискотека 90-Х [2014, Pop, Disco, Eurodance, MP3]

Nickolas3435

447 | 10

835.4 МБ

В этой теме нет новых непрочитанных сообщений. VA - Осенняя дискотека популярных хитов [Pop, Disco, 2014] MP3, 256-319kbps

Dracon

57 | 4

687.46 МБ

В этой теме нет новых непрочитанных сообщений. VA - Дискотека в стиле Blue System [Pop, Disco, 2014] MP3, 128-320kbps

Dracon

66 | 6

709.04 МБ


Начать новую тему Ответить на тему  [ 1 сообщение ] 




Для Мосгорсуда, Роскомнадзора и рекламодателей:: mosgorsud-torrent[собачка]yandex.ru