Торрент файл
скачать торрент магнет ссылка Добавлен: 08 янв 2012, 03:24
Размер: 5.27 ГБ
Сидеров: 11
Личеров: 9
Автор

СообщениеДобавлено: 08 янв 2012, 03:24 

Не в сети
Супермодератор
Аватара пользователя
Дата регистрации:
22 май 2010, 11:03
Возраст: 31
Спасибо: 7509 / 13
Сообщения: 49940
Bon Jovi - Cross Road The Best Of

Формат: DVD9, DVD Video, MPEG2, PCM

Песня: Cross RoadThe Best Of

Жанр: Rock

Продолжительность: 01:23:23

Год выпуска: 1994

Видео: MPEG 2 VIDEO, 720*480 (NTSC 4:3), 29.97 fps, ~7445 kbps avg, 0,719 bit/pixel

Аудио: 48.0 khz, PCM, 2 ch, 1536 kbps avg

Доп. информация: Японское издание видеоклипов 1986 - 1994 годов.
    Треклист
01. Livin' On A Prayer
02. Keep The Faith
03. Wanted Dead Or Alive
04. Lay Your Hands On Me
05. You Give Love A Bad Name
06. Bed Of Roses
07. Blaze Of Glory
08. In These Arms
09. Bad Medicine
10. I'll Be There For You
11. Dry County
12. Living In Sin
13. Miracle
14. I Believe
15. I'll Be Sleep When I'm Dead
16. Always
Общее
Полное имя: D:\Torrents\Download\Bon Jovi - Cross Road Best Of\VIDEO_TS\VTS_01_2.VOB
Формат: MPEG-PS
Размер файла: 1024 Мбайт
Продолжительность: 15 м.
Общий поток: 9163 Кбит/сек

Видео
Идентификатор: 224 (0xE0)
Формат: MPEG Video
Версия формата: Version 2
Профиль формата: Main@Main
Параметр BVOP формата: Да
Параметр матрицы формата: По умолчанию
Параметры GOP формата: M=3, N=15
Продолжительность: 15 м.
Вид битрейта: Переменный
Битрейт: 7445 Кбит/сек
Номинальный битрейт: 9800 Кбит/сек
Ширина: 720 пикс.
Высота: 480 пикс.
Соотношение сторон: 4:3
Частота кадров: 29,970 кадр/сек
Стандарт вещания: Component
Цветовое пространство: YUV
Подвыборка цветности: 4:2:0
Битовая глубина: 8 бит
Тип развёртки: Чересстрочная
Порядок развёртки: Верхнее поле первое
Метод сжатия: С потерями
Бит/(Пиксели*Кадры): 0.719
Размер потока: 832 Мбайт (81%)

Аудио
Идентификатор: 160 (0xA0)
Формат: PCM
Параметр Endianness формата: Big
Параметр Sign формата: Signed
Режим смешивания: DVD-Video
Продолжительность: 15 м.
Вид битрейта: Постоянный
Битрейт: 1536 Кбит/сек
Каналы: 2 канала
Расположение каналов: Front: L R
Частота: 48,0 КГц
Битовая глубина: 16 бит
Задержка видео: -676 мс.
Размер потока: 172 Мбайт (17%)

Меню







[b]Поделиться:




реклама партнёра


Вернуться к началу
 Профиль Отправить личное сообщение  
 
   Похожие торренты   Автор   Торрент   Размер 
В этой теме нет новых непрочитанных сообщений. Rubicon Cross - Rubicon Cross (Deluxe Edition) [2014, Hard Rock, MP3]

PriZraK

0 | 1

115.14 МБ

В этой теме нет новых непрочитанных сообщений. Bon Jovi - Blaze Of Hits (Limited Edition) [2011, Hard Rock, Pop Rock, MP3]

PriZraK

7 | 1

220.57 МБ

В этой теме нет новых непрочитанных сообщений. Bon Jovi - All Gold [2000, Rock, Hard Rock, MP3]

PriZraK

7 | 1

184.98 МБ

В этой теме нет новых непрочитанных сообщений. Cross Solder - Cross Solder [2014, Hard Rock, MP3]

PriZraK

2 | 1

92.86 МБ

В этой теме нет новых непрочитанных сообщений. Двойное пересечение / Double Cross [драма, мелодрама, триллер, 1994] DVDRip, Avo

salma3

54 | 2

1.37 ГБ

В этой теме нет новых непрочитанных сообщений. Misha Cross Wide Open / Misha Cross: Настеж (Manuel Ferrara / Evil Angel) (Misha Cross, Jenna J Ross, Kayden Kross, Jade Nile, Anikka Albrite) [2014 г., Gonzo, Blowbang, Lesbian, Anal, DP, WEB-DL 720p][Split Scenes]

kite

9 | 9

3.91 ГБ

В этой теме нет новых непрочитанных сообщений. Bon Jovi - What About Now (Deluxe Edition) [2013, Hard Rock, MP3]

PriZraK

5 | 1

157.38 МБ


Начать новую тему Ответить на тему  [ 1 сообщение ] 




Для Мосгорсуда, Роскомнадзора и рекламодателей:: mosgorsud-torrent[собачка]yandex.ru