Торрент файл
скачать торрент магнет ссылка Добавлен: 08 янв 2012, 03:24
Размер: 5.27 ГБ
Сидеров: 11
Личеров: 9
Автор

СообщениеДобавлено: 08 янв 2012, 03:24 

Не в сети
Супермодератор
Аватара пользователя
Дата регистрации:
22 май 2010, 11:03
Возраст: 37
Спасибо: 7939 / 13
Сообщения: 49828
Bon Jovi - Cross Road The Best Of

Формат: DVD9, DVD Video, MPEG2, PCM

Песня: Cross RoadThe Best Of

Жанр: Rock

Продолжительность: 01:23:23

Год выпуска: 1994

Видео: MPEG 2 VIDEO, 720*480 (NTSC 4:3), 29.97 fps, ~7445 kbps avg, 0,719 bit/pixel

Аудио: 48.0 khz, PCM, 2 ch, 1536 kbps avg

Доп. информация: Японское издание видеоклипов 1986 - 1994 годов.
    Треклист
01. Livin' On A Prayer
02. Keep The Faith
03. Wanted Dead Or Alive
04. Lay Your Hands On Me
05. You Give Love A Bad Name
06. Bed Of Roses
07. Blaze Of Glory
08. In These Arms
09. Bad Medicine
10. I'll Be There For You
11. Dry County
12. Living In Sin
13. Miracle
14. I Believe
15. I'll Be Sleep When I'm Dead
16. Always
Общее
Полное имя: D:\Torrents\Download\Bon Jovi - Cross Road Best Of\VIDEO_TS\VTS_01_2.VOB
Формат: MPEG-PS
Размер файла: 1024 Мбайт
Продолжительность: 15 м.
Общий поток: 9163 Кбит/сек

Видео
Идентификатор: 224 (0xE0)
Формат: MPEG Video
Версия формата: Version 2
Профиль формата: Main@Main
Параметр BVOP формата: Да
Параметр матрицы формата: По умолчанию
Параметры GOP формата: M=3, N=15
Продолжительность: 15 м.
Вид битрейта: Переменный
Битрейт: 7445 Кбит/сек
Номинальный битрейт: 9800 Кбит/сек
Ширина: 720 пикс.
Высота: 480 пикс.
Соотношение сторон: 4:3
Частота кадров: 29,970 кадр/сек
Стандарт вещания: Component
Цветовое пространство: YUV
Подвыборка цветности: 4:2:0
Битовая глубина: 8 бит
Тип развёртки: Чересстрочная
Порядок развёртки: Верхнее поле первое
Метод сжатия: С потерями
Бит/(Пиксели*Кадры): 0.719
Размер потока: 832 Мбайт (81%)

Аудио
Идентификатор: 160 (0xA0)
Формат: PCM
Параметр Endianness формата: Big
Параметр Sign формата: Signed
Режим смешивания: DVD-Video
Продолжительность: 15 м.
Вид битрейта: Постоянный
Битрейт: 1536 Кбит/сек
Каналы: 2 канала
Расположение каналов: Front: L R
Частота: 48,0 КГц
Битовая глубина: 16 бит
Задержка видео: -676 мс.
Размер потока: 172 Мбайт (17%)

Меню







[b]Поделиться:



Вернуться к началу
 Профиль Отправить личное сообщение  
 
   Похожие торренты   Автор   Торрент   Размер 
В этой теме нет новых непрочитанных сообщений. Abby Cross - Kissing Cross (2016) SiteRip

zorgi

0 | 0

422.6 МБ

В этой теме нет новых непрочитанных сообщений. [Tushy.com] Venera Maxima - Bon Appetit (03.04.2022) [DP, Anal, Threesome, All Sex]

zorgi

12 | 1

278.65 МБ

В этой теме нет новых непрочитанных сообщений. Charlotte Cross - My Whore Daughter (2016) WEB-DL 1080p

zorgi

18 | 8

533.02 МБ

В этой теме нет новых непрочитанных сообщений. [BrazzersExxtra.com / Brazzers.com] Chloe Lamour - Cross-Training Those Tits (06.04.2022) [All Sex]

zorgi

9 | 1

341.5 МБ

В этой теме нет новых непрочитанных сообщений. [Mofos.com / LetsTryAnal.com] Abby Cross - Beach Blonde's Anal Creampie [2016 г., SiteRip]

Serlock

34 | 3

386.8 МБ

В этой теме нет новых непрочитанных сообщений. Королева дорог 13 / Road Queen 13 (2010) DVDRip

zorgi

0 | 1

2.05 ГБ

В этой теме нет новых непрочитанных сообщений. Дорожное путешествие / Road trip (2016) WEB-DL 720p

Budulai

11 | 0

3.45 ГБ


Начать новую тему Ответить на тему  [ 1 сообщение ] 




Для Мосгорсуда, Роскомнадзора и рекламодателей:: rstracker[собака]yandex.ru
cron