Торрент файл
скачать торрент магнет ссылка Добавлен: 08 янв 2012, 03:24
Размер: 4.31 ГБ
Сидеров: 8
Личеров: 7
Автор

СообщениеДобавлено: 08 янв 2012, 03:24 

Не в сети
Супермодератор
Аватара пользователя
Дата регистрации:
22 май 2010, 11:03
Возраст: 31
Спасибо: 7524 / 13
Сообщения: 49940
Anthrax - Music Of Mass Destruction

Формат: DVD5 (сжатый), DVD Video, MPEG2, AC3
Песня: Music Of Mass Destruction
Жанр: Thrash Metal
Продолжительность: 01:27:25
Год выпуска: 2004
Видео: MPEG 2 VIDEO, 720*480 (NTSC 4:3), 29.97 fps, ~5430 kbps avg, 0,524 bit/pixel
Аудио #1: 48,0 khz, AC 3, 2 ch, 448 kbps avg
Аудио #2: 48.0 khz, AC 3, 6 ch, 448 kbps avg
Доп. информация: Концерт в Чикаго, США. 5 декабря 2003 года.

Удалил: предостережение, extra материалы. Видео не сжималось.
    Состав
John Bush – Lead Vocals
Rob Caggiano – Lead Guitar
Scott Ian – Rhythm Guitar, Backing Vocals
Frank Bello – Bass, Backing Vocals
Charlie Benante - Drums
    Треклист
1. What Doesn't Die
2. Got The Time
3. Caught In A Mosh
4. Safe Home
5. Room For One More
6. Antisocial
7. Nobody Knows Anything
8. Belly Of The Beast
9. Inside Out
10. Refuse To Be Denied
11. 604
12. I Am The Law
13. Only
14. Be All End All
15. Indians
16. Bring The Noise/I'm The Man
Общее
Полное имя: D:\Torrents\Download\Anthrax - Music Of Mass Destruction\VIDEO_TS\VTS_05_1.VOB
Формат: MPEG-PS
Размер файла: 1024 Мбайт
Продолжительность: 22 м.
Общий поток: 6455 Кбит/сек

Видео
Идентификатор: 224 (0xE0)
Формат: MPEG Video
Версия формата: Version 2
Профиль формата: Main@Main
Параметр BVOP формата: Да
Параметр матрицы формата: По умолчанию
Параметры GOP формата: M=3, N=15
Продолжительность: 22 м.
Вид битрейта: Переменный
Битрейт: 5430 Кбит/сек
Номинальный битрейт: 6500 Кбит/сек
Ширина: 720 пикс.
Высота: 480 пикс.
Соотношение сторон: 4:3
Частота кадров: 29,970 кадр/сек
Стандарт вещания: NTSC
Цветовое пространство: YUV
Подвыборка цветности: 4:2:0
Битовая глубина: 8 бит
Тип развёртки: Чересстрочная
Порядок развёртки: Нижнее поле первое
Метод сжатия: С потерями
Бит/(Пиксели*Кадры): 0.524
Размер потока: 861 Мбайт (84%)

Аудио #1
Идентификатор: 128 (0x80)
Формат: AC-3
Формат/Информация: Audio Coding 3
Расширение режима: CM (complete main)
Продолжительность: 22 м.
Вид битрейта: Постоянный
Битрейт: 448 Кбит/сек
Каналы: 2 канала
Расположение каналов: Front: L R
Частота: 48,0 КГц
Битовая глубина: 16 бит
Метод сжатия: С потерями
Размер потока: 71,1 Мбайт (7%)

Аудио #2
Идентификатор: 129 (0x81)
Формат: AC-3
Формат/Информация: Audio Coding 3
Расширение режима: CM (complete main)
Продолжительность: 22 м.
Вид битрейта: Постоянный
Битрейт: 448 Кбит/сек
Каналы: 6 каналов
Расположение каналов: Front: L C R, Side: L R, LFE
Частота: 48,0 КГц
Битовая глубина: 16 бит
Метод сжатия: С потерями
Размер потока: 71,1 Мбайт (7%)

Меню













[b]Поделиться:




реклама партнёра


Вернуться к началу
 Профиль Отправить личное сообщение  
 
   Похожие торренты   Автор   Торрент   Размер 
В этой теме нет новых непрочитанных сообщений. Anthrax - Worship Music / Anthems (EP) (2CD Special Edition) [2013, Thrash Metal, MP3]

PriZraK

1 | 1

279.22 МБ

В этой теме нет новых непрочитанных сообщений. Anthrax - Anthems (EP) [03.2013, Heavy, Thrash Metal, MP3]

PriZraK

0 | 1

77.27 МБ

В этой теме нет новых непрочитанных сообщений. Anthrax - Persistence Of Time [1990, Thrash metal, MP3]

PriZraK

0 | 1

80.86 МБ

В этой теме нет новых непрочитанных сообщений. Warhammer - Mass Burial [2014, Thrash Metal, MP3]

PriZraK

0 | 3

80.52 МБ

В этой теме нет новых непрочитанных сообщений. Darkfall - Destruction Through The Advancement Of Technology [2014, Melodic Death Metal, Thrash Metal, MP3]

PriZraK

0 | 1

111.28 МБ

В этой теме нет новых непрочитанных сообщений. Destruction - Day Of Reckoning [2011, Thrash Metal, MP3]

PriZraK

0 | 1

115.12 МБ

В этой теме нет новых непрочитанных сообщений. Destruction - Discography (Thrash Metal. 1984-2012) MP3

Aleksandr.ru

4 | 4

6.88 ГБ


Начать новую тему Ответить на тему  [ 1 сообщение ] 




Для Мосгорсуда, Роскомнадзора и рекламодателей:: mosgorsud-torrent[собачка]yandex.ru