Торрент файл
скачать торрент магнет ссылка Добавлен: 08 янв 2012, 03:24
Размер: 4.34 ГБ
Сидеров: 4
Личеров: 7
Автор

СообщениеДобавлено: 08 янв 2012, 03:24 

Не в сети
Супермодератор
Аватара пользователя
Дата регистрации:
22 май 2010, 11:03
Возраст: 31
Спасибо: 7509 / 13
Сообщения: 49940
Led Zeppelin - Demand Unprecedented In The History Of Rock Music

Формат: DVD5, DVD Video, MPEG2, AC3
Песня: Demand Unprecedented In The History Of Rock Music
Жанр: Hard-Rock
Продолжительность: 03:45:40
Год выпуска: May 25, 1975

Видео: 720х576 (PAL 4:3), 25 fps, MPEG-2, ~2793 kbps avg, 0.269 bit/pixel
Аудио: 48 kHz, AC-3 , 2 ch, 224.00 kbps avg

Доп. информация: 17, 18 и 23 мая 1975 г. были запланированы три концерта группы “Led Zeppelin” в лондонском зале “Earl's Court”. Когда 54 тысячи билетов разошлись в считанные часы, организаторы договорились с Питером Грантом на дополнительные два выступления – 24 и 25 числа. Остальное – история. LZ просто гениально отыграли вся пять выступлений. Группа была на пике своей популярности и выше прыгнуть им уже не удалось. Все шоу были записаны, как на аудио, так и на видео. Часть видео можно увидеть на «фирменном» двойном ДВД (концерт 24 мая). Имеется и запись концерта 25-го мая, качеством весьма похуже. Со всей Великобритании в Лондон фанаты съезжались на концерты LZ на специальных электричках - “Led Zeppelin Physical Express”. Плант шутил в течение всего концерта, и одна из фраз была грустно-пророческая: “This is the last concert in England for considerable times… next time maybe in 80th…”.

01 - Introduction By Alan 'Fluff' Freeman
02 - Rock And Roll
03 - Sick Again
04 - Over The Hills And Far Away
05 - In My Time Of Dying
06 - The Song Remains The Same
07 - The Rain Song
08 - Kashmir
09 - No Quarter
10 - Tangerine
11 - Going To California
12 - That's The Way *
13 - Bron-Y-Aur Stomp
14 - Trampled Underfoot
15 - Moby Dick
16 - Dazed And Confused (inc. San Francisco)
17 - Stairway To Heaven
Encores:
18 - Whole Lotta Love (inc. The Crunge)
19 - Black Dog
Additional encores on the last show, on May 25th only:
20 - Heartbreaker
21 - Communication Breakdown (inc. D'yer Maker)

Общее
Формат: MPEG-PS
Размер файла: 1024 Мбайт
Продолжительность: 46 м.
Общий поток: 3079 Кбит/сек

Видео
Идентификатор: 224 (0xE0)
Формат: MPEG Video
Версия формата: Version 2
Профиль формата: Main@Main
Параметр BVOP формата: Да
Параметр матрицы формата: По умолчанию
Параметры GOP формата: M=3, N=15
Продолжительность: 46 м.
Вид битрейта: Переменный
Битрейт: 2793 Кбит/сек
Номинальный битрейт: 8000 Кбит/сек
Ширина: 720 пикс.
Высота: 576 пикс.
Соотношение сторон: 4:3
Частота кадров: 25,000 кадр/сек
Стандарт вещания: PAL
Цветовое пространство: YUV
Подвыборка цветности: 4:2:0
Битовая глубина: 8 бит
Тип развёртки: Прогрессивная
Метод сжатия: С потерями
Бит/(Пиксели*Кадры): 0.269
Размер потока: 929 Мбайт (91%)

Аудио
Идентификатор: 128 (0x80)
Формат: AC-3
Формат/Информация: Audio Coding 3
Расширение режима: CM (complete main)
Продолжительность: 46 м.
Вид битрейта: Постоянный
Битрейт: 224 Кбит/сек
Канал(ы): 2 канала(ов)
Расположение каналов: Front: L R
Частота: 48,0 КГц
Битовая глубина: 16 бит
Метод сжатия: С потерями
Размер потока: 74,5 Мбайт (7%)












Поделиться:




реклама партнёра


Вернуться к началу
 Профиль Отправить личное сообщение  
 
   Похожие торренты   Автор   Торрент   Размер 
В этой теме нет новых непрочитанных сообщений. Led Zeppelin - Throwing The Wild Seeds (Nassau Coliseum 1975 Complete Tapes, 6CD Box Set) [2013, Hard Rock, Heavy Metal, Blues Rock, Folk Rock, MP3]

PriZraK

1 | 2

914.12 МБ

В этой теме нет новых непрочитанных сообщений. Led Zeppelin - Led Zeppelin IV (Deluxe Edition 2CD) [2014, Hard Rock, MP3]

PriZraK

15 | 4

191.57 МБ

В этой теме нет новых непрочитанных сообщений. Led Zeppelin - Hard Zepp (Remaster) [2012, Hard Rock, Classic Rock, MP3]

PriZraK

1 | 2

185.89 МБ

В этой теме нет новых непрочитанных сообщений. Led Zeppelin - Sgt. Pages Badgeholders Club Band (BL) [1995, Classic Rock, Hard Rock, MP3]

PriZraK

3 | 2

447.1 МБ

В этой теме нет новых непрочитанных сообщений. Dread Zeppelin - Un-Led-Ed [1990, Hard Rock, Reggae Rock, MP3]

PriZraK

13 | 3

100.11 МБ

В этой теме нет новых непрочитанных сообщений. Nitzinger - One Foot In History [1999, Hard Rock, Blues Rock, MP3]

PriZraK

0 | 1

101.85 МБ

В этой теме нет новых непрочитанных сообщений. Led Zeppelin - Ascension In The Wane (10 CD) [2012, Hard Rock, Blues Rock, British Blues, MP3]

PriZraK

4 | 3

1.27 ГБ


Начать новую тему Ответить на тему  [ 1 сообщение ] 




Для Мосгорсуда, Роскомнадзора и рекламодателей:: mosgorsud-torrent[собачка]yandex.ru