Торрент файл
скачать торрент магнет ссылка Добавлен: 08 янв 2012, 03:23
Размер: 1.34 ГБ
Сидеров: 5
Личеров: 6
Автор

СообщениеДобавлено: 08 янв 2012, 03:23 

Не в сети
Супермодератор
Аватара пользователя
Дата регистрации:
22 май 2010, 11:03
Возраст: 31
Спасибо: 7508 / 13
Сообщения: 49940
VA - Millenium Dance - Сборник популярных видеоклипов


Формат: DVDRip, MP4, AVC, AAC
Песня: Сборник популярных видеоклипов
Жанр: Pop
Продолжительность: 01:04:17
Год выпуска: 2011
Видео: 720x480 (16:9),29.00 fps, AVC, ~ 2 637 Kbps, 0.261 bit/pixel
Аудио: 48000Hz, stereo, AAC, 384 Kbps
Доп. информация:
Треклист:
01 Elena Gheorghe - Disco Romancing
02 Andreea Banica feat Dony - Samba
03 Nadia Ali - When It Rains
04 Anjulie - Boom(Bimbo.Jones.Remix)
05 Kat Deluna - Drop It Low
06 Cami Hedlinger - King Of Party
07 Bob Taylor - Shake It Up
08 Allexinno and Starchild - Senorita
09 Despina Vandi - Gia
10 Itaka - La Danza De Ibiza
11 Nicko - Last Summer
12 Anna Vissi - Call Me (Rockamerica Remix)
13 Porcelain Black feat Lil.Wayne - This Is What Rock n Roll Looks Like
14 Mihai Ristea - Sexy eyes
15 Andra - SomethingNew(Dj.Yaang Mix)
16 Mad Heart - Call Me Lover
17 Serge Devant f. Taleen - 3AM Eternal - Serge's KLF Remix


General
Complete name: C:\Milenium Dance 1.mp4
Format: MPEG-4
Format profile: Base Media / Version 2
Codec ID: mp42
File size: 1.34 GiB
Duration: 1h 4mn
Overall bit rate: 2 969 Kbps
Writing application: TMPGEnc Video Mastering Works 5 Version. 5.0.6.38

Video
ID: 2
Format: AVC
Format/Info: Advanced Video Codec
Format profile: High@L5.1
Format settings, CABAC: Yes
Format settings, ReFrames: 3 frames
Codec ID: avc1
Codec ID/Info: Advanced Video Coding
Duration: 1h 4mn
Bit rate mode: Constant
Bit rate: 2 637 Kbps / 2 637 Kbps
Width: 720 pixels
Height: 480 pixels
Display aspect ratio: 16:9
Original display aspect ratio: 16:9
Frame rate mode: Constant
Frame rate: 29.970 fps
Standard: NTSC
Color space: YUV
Chroma subsampling: 4:2:0
Bit depth: 8 bits
Scan type: Progressive
Bits/(Pixel*Frame): 0.255
Stream size: 1.17 GiB (87%)
Writing library: x264 core 114
Encoding settings: cabac=1 / ref=3 / deblock=1:0:0 / analyse=0x3:0x133 / me=umh / subme=9 / psy=1 / psy_rd=1.00:0.00 / mixed_ref=1 / me_range=24 / chroma_me=1 / trellis=2 / 8x8dct=1 / cqm=2 / deadzone=21,11 / fast_pskip=1 / chroma_qp_offset=-2 / threads=3 / sliced_threads=0 / slices=2 / nr=0 / decimate=1 / interlaced=0 / constrained_intra=0 / bframes=3 / b_pyramid=0 / b_adapt=2 / b_bias=0 / direct=3 / weightb=1 / open_gop=0 / weightp=2 / keyint=250 / keyint_min=25 / scenecut=68 / intra_refresh=0 / rc_lookahead=60 / rc=cbr / mbtree=1 / bitrate=2637 / ratetol=1.0 / qcomp=0.60 / qpmin=3 / qpmax=69 / qpstep=4 / vbv_maxrate=2637 / vbv_bufsize=2621 / nal_hrd=cbr / ip_ratio=1.40 / aq=1:1.00
Color primaries: BT.601-6 525, BT.1358 525, BT.1700 NTSC, SMPTE 170M
Transfer characteristics: BT.601-6 525, BT.601-6 625, BT.1358 525, BT.1358 625, BT.1700 NTSC, SMPTE 170M
Matrix coefficients: BT.601-6 525, BT.1358 525, BT.1700 NTSC, SMPTE 170M

Audio
ID: 1
Format: AAC
Format/Info: Advanced Audio Codec
Format profile: Main
Codec ID: 40
Duration: 1h 4mn
Bit rate mode: Variable
Bit rate: 384 Kbps
Maximum bit rate: 576 Kbps
Channel(s): 2 channels
Channel positions: Front: L R
Sampling rate: 48.0 KHz
Compression mode: Lossy
Stream size: 178 MiB (13%)








Поделиться:




реклама партнёра


Вернуться к началу
 Профиль Отправить личное сообщение  
 
   Похожие торренты   Автор   Торрент   Размер 
В этой теме нет новых непрочитанных сообщений. Сборник - Весенняя 100-ка популярных треков [2015, Pop, Dance, MP3]

Nickolas3435

292 | 25

688.98 МБ

В этой теме нет новых непрочитанных сообщений. Сборник - Музыкальное наслаждение самых популярных хитов [2015, Pop, Dance, MP3]

Nickolas3435

798 | 20

762.77 МБ

В этой теме нет новых непрочитанных сообщений. Сборник - Новинки с разных популярных MP3 сайтов. Ver.29 [01.10] [2014, Club, Dance, Disco, Pop, Rap, RnB, Rock, MP3]

Nickolas3435

203 | 15

1.03 ГБ

В этой теме нет новых непрочитанных сообщений. VA - Millenium Dance 11 [2014, Pop, HDTV 720р, 1080р]

Nickolas3435

80 | 14

5.8 ГБ

В этой теме нет новых непрочитанных сообщений. VA - Новинки с популярных MP3 сайтов [01.01] [2015, Club, dance, disco, pop, rap, r'n'b, rock, MP3]

Nickolas3435

466 | 26

693.35 МБ

В этой теме нет новых непрочитанных сообщений. Сборник - Dance - Dance - Dance [2015, Dance, Club, MP3]

Nickolas3435

202 | 22

1.14 ГБ

В этой теме нет новых непрочитанных сообщений. Сборник - Лучшее на Авторадио Сборник хитов [2015, Pop, Dance, MP3]

Nickolas3435

1072 | 30

687.32 МБ


Начать новую тему Ответить на тему  [ 1 сообщение ] 




Для Мосгорсуда, Роскомнадзора и рекламодателей:: mosgorsud-torrent[собачка]yandex.ru
cron