Торрент файл
скачать торрент магнет ссылка Добавлен: 08 янв 2012, 03:22
Размер: 4.36 ГБ
Сидеров: 7
Личеров: 8
Автор

СообщениеДобавлено: 08 янв 2012, 03:22 

Не в сети
Супермодератор
Аватара пользователя
Дата регистрации:
22 май 2010, 11:03
Возраст: 32
Спасибо: 7690 / 13
Сообщения: 49871
VA - Дискотека 80-х. Песни моей мамы Vol. 9


Формат: DVD5, DVD Video, MPEG2, AC3
Песня: Дискотека 80-х. Песни моей мамы Vol. 9
Жанр: Disco, Pop
Продолжительность: 01:58:37
Год выпуска: 1974-1995

Видео: 720х576 (PAL 4:3), 25 fps, MPEG-2, ~4229 kbps avg, 0.408 bit/pixel
Аудио: 48 kHz, AC-3 , 2 ch, 192.00 kbps avg

Доп. информация: В девятом альбоме продолжение подборки песен, которые помогут создать картину событий прошлого и вспомнить - как наши мамы проводили свой досуг на дискотеке 80-х в великой стране которой больше нет - в СССР.
01 А. Малинин- Ночь (1990)
02 Стелла - Пой, душа (1991)
03 А. Вески - Следую за тобой (1984)
04 В. Леонтьев - Там, в сентябре (1987)
05 В. Цой - Легенда (1988)
06 Машина времени - Скачки (1991)
07 Ю. Антонов - Переулочки Арбата (1987)
08 Шериф - Джулия (1991)
09 Н. Караченцов - Снимается кино (1985)
10 Воскресение - Кто виноват (1992)
11 В. Кузьмин - Моя любовь (1987)
12 Мираж и Т. Овсиенко - Я больше не прошу (1990)
13 Я. Йоала - Дело случая (1986)
14 Шоколад – Как мне жаль (1989)
15 Э. Предигер и Альфа - Гуляка (1995)
16 А. Державин - Забудь обо мне (1992)
17 С. Ротару и Машина времени - За тех кто в море (1984)
18 Комбинация - А я люблю военных (1995)
19 А. Глызин - Пепел любви (1990)
20 Фристайл и В. Казаченко - Больно мне, больно (1991)
21 Витамин - Снежные напевы (1981)
22 Твой День - Влюбленный май (1989)
23 А. Пугачева - Песенка первоклассника (197
24 Самоцветы - Не повторяется такое никогда (1974)
25 Ласковый май - Что же ты, лето (1989)
26 И. Тальков - Летний дождь (1990)
27 Интеграл - Кони (1986)
28 Л. Долина - Колыбельная (1984)
29 Электронный Мальчик - Девушка с Урала (1988)
30 Д. Харатьяна - Школьный вальс (1976)

Общее
Полное имя: C:\Tfile\pesni_moej_mamy_vol9_[tfile.ru]\VIDEO_TS\VTS_01_1.VOB
Формат: MPEG-PS
Размер файла: 1024 Мбайт
Продолжительность: 31 м.
Общий поток: 4511 Кбит/сек

Видео
Идентификатор: 224 (0xE0)
Формат: MPEG Video
Версия формата: Version 2
Профиль формата: Main@Main
Параметр BVOP формата: Да
Параметр матрицы формата: По умолчанию
Параметры GOP формата: M=3, N=15
Продолжительность: 31 м.
Вид битрейта: Переменный
Битрейт: 4229 Кбит/сек
Номинальный битрейт: 9008 Кбит/сек
Ширина: 720 пикс.
Высота: 576 пикс.
Соотношение сторон: 4:3
Частота кадров: 25,000 кадр/сек
Стандарт вещания: PAL
Цветовое пространство: YUV
Подвыборка цветности: 4:2:0
Битовая глубина: 8 бит
Тип развёртки: Прогрессивная
Метод сжатия: С потерями
Бит/(Пиксели*Кадры): 0.408
Размер потока: 960 Мбайт (94%)

Аудио
Идентификатор: 128 (0x80)
Формат: AC-3
Формат/Информация: Audio Coding 3
Расширение режима: CM (complete main)
Продолжительность: 31 м.
Вид битрейта: Постоянный
Битрейт: 192 Кбит/сек
Канал(ы): 2 канала(ов)
Расположение каналов: Front: L R
Частота: 48,0 КГц
Битовая глубина: 16 бит
Метод сжатия: С потерями
Размер потока: 43,6 Мбайт (4%)













Поделиться:




реклама партнёра


Вернуться к началу
 Профиль Отправить личное сообщение  
 
   Похожие торренты   Автор   Торрент   Размер 
В этой теме нет новых непрочитанных сообщений. VA - Дискотека забытых хитов (1) [Disco, Italo Disco, 2017] MP3 / 320kbps

salma3

688 | 55

684.16 МБ

В этой теме нет новых непрочитанных сообщений. VA - Дискотека забытых хитов (3) [Pop, Disco, Italo Disco, 2017] MP3 / 320kbps

salma3

145 | 9

631.48 МБ

В этой теме нет новых непрочитанных сообщений. VA - Дискотека забытых хитов (2) [Disco, Italo Disco, 2017] MP3 / 256-320kbps

salma3

253 | 31

680.2 МБ

В этой теме нет новых непрочитанных сообщений. VA - Дискотека забытых хитов (5) [Pop, Disco, Italo Disco, 2017] MP3 / 320kbps

salma3

221 | 23

628.17 МБ

В этой теме нет новых непрочитанных сообщений. VA - Дискотека забытых хитов (4) [Pop, Disco, Italo Disco, 2017] MP3 / 256-320kbps

salma3

402 | 55

695.61 МБ

В этой теме нет новых непрочитанных сообщений. VA - Дискотека 80-90х по-новому 2 [2015, Disco, Pop, MP3]

Nickolas3435

647 | 15

1002.89 МБ

В этой теме нет новых непрочитанных сообщений. VA - Турбо дискотека 50 на 50 [Pop, Disco, 2014] MP3, 256kbps

Dracon

49 | 4

671.01 МБ


Начать новую тему Ответить на тему  [ 1 сообщение ] 




Для Мосгорсуда, Роскомнадзора и рекламодателей:: mosgorsud-torrent[собачка]yandex.ru