Торрент файл
скачать торрент магнет ссылка Добавлен: 08 янв 2012, 03:21
Размер: 4.15 ГБ
Сидеров: 16
Личеров: 9
Автор

СообщениеДобавлено: 08 янв 2012, 03:21 

Не в сети
Супермодератор
Аватара пользователя
Дата регистрации:
22 май 2010, 11:03
Возраст: 31
Спасибо: 7508 / 13
Сообщения: 49940
VA - С Новым Годом!


Формат: DVD5, DVD Video, MPEG2, AC3
Песня: С Новым Годом !
Жанр: Pop
Продолжительность: 01:52:50
Год выпуска: 2011

Видео: 720х576 (PAL 4:3), 25 fps, MPEG-2, ~4150 kbps avg, 0.400 bit/pixel
Аудио: 48 kHz, AC-3 , 2 ch, 192.00 kbps avg

Доп. информация: Все клипы собраны только про Новый Год

С Новым годом поздравляю
Много счастья вам желаю
Чтобы Дедушка Мороз
Мешок радости принес
А второй мешок со смехом
Ну а третий пусть с успехом
Свою печаль, свою тоску
Сложите вы в мешок к нему
пусть все он это соберет
и в лес с собою унесет!
01 Все звезды – Новогодняя
02 Потап и Настя Каменских - Новый год
03 А. Ковалев и Саша Project - Песенка Деда Мороза
04 Стрелки - С Новым Годом
05 С. Пьеха и Павла – Новогодняя
06 Тутси - Сто свечей (Рождественская)
07 Дискотека авария – Новогодняя
08 Чай вдвоем - Новогодний поцелуй
09 Верка Сердючка – Новогодняя
10 Чили - Новый год в постели
11 Elvira T- Новый Год
12 Группа Блестящие – Новогодняя песня
13 А. Маршал – Новогодняя
14 Подиум - Новогодняя песня
15 Триши – Новогодняя
16 Gallina – Снегурочка
17 Reflex - Это Новый Год
18 MMDANCE – Новогодняя
19 Л. Агутин - Новый год
20 В. Чехов – Новогодняя
21 Поющие трусы – Тазик оливье
22 Несчастный Случай - С первого по тринадцатое
23 Фристайл — Падали снежинки
24 И. Аллегрова и Г. Лепс - Какое небо голубое (новогодняя шутка)
25 Серёга и М. Малиновская - С новым Годом - С.Н.Г.
26 Ю. Проскурякова и И. Николаев - Новый год без тебя
27 Т. Буланова - Под Новый Год
28 Тяни-толкай - Санта Клаус
29 А. Цой - Новогодние игрушки
30 Т. Повалий и Н. Басков - Снегом белым

Общее
Полное имя: C:\Tfile\s_novym_godom_[tfile.ru]\VIDEO_TS\VTS_01_1.VOB
Формат: MPEG-PS
Размер файла: 1024 Мбайт
Продолжительность: 32 м.
Общий поток: 4430 Кбит/сек

Видео
Идентификатор: 224 (0xE0)
Формат: MPEG Video
Версия формата: Version 2
Профиль формата: Main@Main
Параметр BVOP формата: Да
Параметр матрицы формата: По умолчанию
Параметры GOP формата: M=3, N=15
Продолжительность: 32 м.
Вид битрейта: Переменный
Битрейт: 4150 Кбит/сек
Номинальный битрейт: 9008 Кбит/сек
Ширина: 720 пикс.
Высота: 576 пикс.
Соотношение сторон: 4:3
Частота кадров: 25,000 кадр/сек
Стандарт вещания: PAL
Цветовое пространство: YUV
Подвыборка цветности: 4:2:0
Битовая глубина: 8 бит
Тип развёртки: Прогрессивная
Метод сжатия: С потерями
Бит/(Пиксели*Кадры): 0.400
Размер потока: 959 Мбайт (94%)

Аудио
Идентификатор: 128 (0x80)
Формат: AC-3
Формат/Информация: Audio Coding 3
Расширение режима: CM (complete main)
Продолжительность: 32 м.
Вид битрейта: Постоянный
Битрейт: 192 Кбит/сек
Канал(ы): 2 канала(ов)
Расположение каналов: Front: L R
Частота: 48,0 КГц
Битовая глубина: 16 бит
Метод сжатия: С потерями
Размер потока: 44,4 Мбайт (4%)














Релиз представлен группой
Поделиться:




реклама партнёра


Вернуться к началу
 Профиль Отправить личное сообщение  
 
   Похожие торренты   Автор   Торрент   Размер 
В этой теме нет новых непрочитанных сообщений. С Новым годом / Happy New Year [Мьюзикл, Боевик, Драма, 2014] WEB-DL 720р, Dvo+Sub

salma3

64 | 4

7.13 ГБ

В этой теме нет новых непрочитанных сообщений. VA - С Новым 2014 Годом! [Pop, Chanson, Rock, Dance, Club, Rap, 2013] MP3, 128-320kbps

Ανδρέας

758 | 20

630.63 МБ

В этой теме нет новых непрочитанных сообщений. С Новым годом! / Happy New Year [мюзикл, боевик, комедия, 2014] DVDRip, Dvo+Sub

salma3

129 | 8

1.46 ГБ

В этой теме нет новых непрочитанных сообщений. C Новым годом / Happy New Year [мюзикл, драма, комедия, 2014] WEB-DLRip, Mvo+Sub

salma3

61 | 6

2.19 ГБ

В этой теме нет новых непрочитанных сообщений. С Новым годом! Сборник мультфильмов (Мстислав Пащенко, Владимир Дегтярёв, Леонид Амальрик, Борис Дежкин) [1950-1969, Приключения, DVDRip]

Nickolas3435

269 | 11

1.36 ГБ

В этой теме нет новых непрочитанных сообщений. Освенцим / Auschwitz [драма, 2011] DVD5, Mvo+Sub [лицензия]

Dracon

57 | 7

3.77 ГБ

В этой теме нет новых непрочитанных сообщений. Уловка .44 / Catch .44 [триллер, драма, криминал, 2011] DVD5, Mvo+Sub

salma3

10 | 8

4.37 ГБ


Начать новую тему Ответить на тему  [ 1 сообщение ] 




Для Мосгорсуда, Роскомнадзора и рекламодателей:: mosgorsud-torrent[собачка]yandex.ru