Торрент файл
скачать торрент магнет ссылка Добавлен: 08 янв 2012, 03:19
Размер: 4.31 ГБ
Сидеров: 0
Личеров: 12
Автор

СообщениеДобавлено: 08 янв 2012, 03:19 

Не в сети
Супермодератор
Аватара пользователя
Дата регистрации:
22 май 2010, 11:03
Возраст: 37
Спасибо: 7939 / 13
Сообщения: 49828
Doro - Live - 1993

Формат: VHSRip, DVD Video, MPEG2, AC3
Песня: Live - 1993
Жанр: Heavy Metal
Продолжительность: 01:30:27
Год выпуска: 1993
Видео: MPEG 2 VIDEO, 704*576 ( PAL 4:3), 25.0 fps, ~6489 kbps,0,640 bit/pixel
Аудио: 48,0 khz, AC-3, 2 ch, 192 kbps avg
Доп. информация: Концерт в Гамбурге, Германия. 6 октября 1993 года.
    Треклист
01. I Rule The Ruins
02. Hellbound
03. Only You
04. Bad Blood
05. So Alone Together
06. Eye On You
07. Metal Tango
08. Fall For Me Again
09. Fur Immer
10. Let's Rock Forever
11. All We Are
12. Enough For You
13. The Fortuneteller
14. I Am What I Am
15. East Meets West
16. Whenever I Think Of You
17. Children Of The Night
18. Burning The Witches
19. Alles Is Gut
Общее
Полное имя: D:\Video\Doro - Live 1993\VIDEO_TS\VTS_01_1.VOB
Формат: MPEG-PS
Размер файла: 1024 Мбайт
Продолжительность: 21 м.
Общий поток: 6816 Кбит/сек
Библиотека кодирования: Created by Nero

Видео
Идентификатор: 224 (0xE0)
Формат: MPEG Video
Версия формата: Version 2
Профиль формата: Main@Main
Параметр BVOP формата: Да
Параметр матрицы формата: По умолчанию
Параметры GOP формата: M=3, N=15
Продолжительность: 21 м.
Вид битрейта: Переменный
Битрейт: 6489 Кбит/сек
Номинальный битрейт: 9641 Кбит/сек
Ширина: 704 пикс.
Высота: 576 пикс.
Соотношение сторон: 4:3
Частота кадров: 25,000 кадр/сек
Стандарт вещания: PAL
Цветовое пространство: YUV
Подвыборка цветности: 4:2:0
Битовая глубина: 8 бит
Тип развёртки: Прогрессивная
Порядок развёртки: Нижнее поле первое
Метод сжатия: С потерями
Бит/(Пиксели*Кадры): 0.640
Размер потока: 975 Мбайт (95%)
Библиотека кодирования: Created by Nero

Аудио
Идентификатор: 128 (0x80)
Формат: AC-3
Формат/Информация: Audio Coding 3
Расширение режима: CM (complete main)
Продолжительность: 21 м.
Вид битрейта: Постоянный
Битрейт: 192 Кбит/сек
Каналы: 2 канала
Расположение каналов: Front: L R
Частота: 48,0 КГц
Битовая глубина: 16 бит
Метод сжатия: С потерями
Задержка видео: -40 мс.
Размер потока: 28,8 Мбайт (3%)

Меню









[b]Поделиться:



Вернуться к началу
 Профиль Отправить личное сообщение  
 
   Похожие торренты   Автор   Торрент   Размер 
В этой теме нет новых непрочитанных сообщений. Путешествие / Voyage [триллер, 1993] DVDRip, Dvo

salma3

0 | 0

984.48 МБ

В этой теме нет новых непрочитанных сообщений. Женская эротичность / Les Femmes Erotiques (1993) DVDRip

zorgi

0 | 0

1.75 ГБ

В этой теме нет новых непрочитанных сообщений. Лучшие из лучших 2 / Best of the Best II [Боевик, 1993] BDRip 720p, Mvo

salma3

0 | 0

4.93 ГБ

В этой теме нет новых непрочитанных сообщений. Смертоносная пантера 2 / Magkasangga sa batas [боевик, 1993] DVDRip, Avo

salma3

0 | 0

1.36 ГБ

В этой теме нет новых непрочитанных сообщений. Исчезновение / The Vanishing [триллер, драма, детектив, 1993] BDRip, Mvo

salma3

0 | 0

2.29 ГБ

В этой теме нет новых непрочитанных сообщений. Мертвая мать / La madre muerta [драма, триллер, 1993] DVDRip, Mvo

salma3

3 | 0

1.46 ГБ

В этой теме нет новых непрочитанных сообщений. Временная секретарша / The Temp [драма, триллер, 1993] WEB-DLRip, Mvo

salma3

0 | 0

1.93 ГБ


Начать новую тему Ответить на тему  [ 1 сообщение ] 




Для Мосгорсуда, Роскомнадзора и рекламодателей:: rstracker[собака]yandex.ru
cron