Торрент файл
скачать торрент магнет ссылка Добавлен: 07 янв 2012, 22:58
Размер: 4.09 ГБ
Сидеров: 0
Личеров: 7
Автор

СообщениеДобавлено: 07 янв 2012, 22:58 

Не в сети
Супермодератор
Аватара пользователя
Дата регистрации:
22 май 2010, 11:03
Возраст: 31
Спасибо: 7524 / 13
Сообщения: 49940
Def Leppard - Live Sheffield

Формат: DVD5, DVD Video, MPEG2, PCM
Песня: Live Sheffield
Жанр: Rock
Продолжительность: 01:30:32
Год выпуска: 1992

Видео: MPEG 2 VIDEO, 720*480 (NTSC 4:3), 29.97 fps, ~4779 kbps avg, 0,461 bit/pixel
Аудио: 48.0 khz, PCM, 2 ch, 1536 kbps avg

Доп. информация: Концерт в Шеффилде, Англия. 6 июня 1992 года.
    Треклист
01. Let's Get Rocked
02. Another Hit And Run
03. Too Late For Love
04. Hysteria
05. Make Love Like A Man
06. Foolin'
07. Rock It
08. Too Steps Behind
09. Have You Ever Needed Someone So Bad
10. Armageddon It
11. Pour Some Sugar On Me
12. Rock Of Ages
13. Love Bites
14. Photograph
Общее
Полное имя: D:\Torrents\Download\Def Leppard - Live Sheffield\VIDEO_TS\VTS_01_1.VOB
Формат: MPEG-PS
Размер файла: 1024 Мбайт
Продолжительность: 22 м.
Общий поток: 6443 Кбит/сек

Видео
Идентификатор: 224 (0xE0)
Формат: MPEG Video
Версия формата: Version 2
Профиль формата: Main@Main
Параметр BVOP формата: Да
Параметр матрицы формата: По умолчанию
Параметры GOP формата: M=3, N=15
Продолжительность: 22 м.
Вид битрейта: Переменный
Битрейт: 4779 Кбит/сек
Номинальный битрейт: 8000 Кбит/сек
Ширина: 720 пикс.
Высота: 480 пикс.
Соотношение сторон: 4:3
Частота кадров: 29,970 кадр/сек
Стандарт вещания: NTSC
Цветовое пространство: YUV
Подвыборка цветности: 4:2:0
Битовая глубина: 8 бит
Тип развёртки: Чересстрочная
Порядок развёртки: Верхнее поле первое
Метод сжатия: С потерями
Бит/(Пиксели*Кадры): 0.461
Размер потока: 760 Мбайт (74%)

Аудио
Идентификатор: 160 (0xA0)
Формат: PCM
Параметр Endianness формата: Big
Параметр Sign формата: Signed
Режим смешивания: DVD-Video
Продолжительность: 22 м.
Вид битрейта: Постоянный
Битрейт: 1536 Кбит/сек
Каналы: 2 канала
Расположение каналов: Front: L R
Частота: 48,0 КГц
Битовая глубина: 16 бит
Задержка видео: -67 мс.
Размер потока: 244 Мбайт (24%)

Меню









[b]Поделиться:




реклама партнёра


Вернуться к началу
 Профиль Отправить личное сообщение  
 
   Похожие торренты   Автор   Торрент   Размер 
В этой теме нет новых непрочитанных сообщений. Def Leppard - Def Leppard (Hard-Rock, 2015) MP3

Aleksandr.ru

3356 | 412

126.28 МБ

В этой теме нет новых непрочитанных сообщений. Fats Domino - Greatest Hits Live [1993, Rock'n'roll, MP3]

PriZraK

0 | 1

93.75 МБ

В этой теме нет новых непрочитанных сообщений. Def Leppard - Slang [Deluxe Edition] [2CD] (Hard Rock. 2014) Mp3

Aleksandr.ru

63 | 3

291.03 МБ

В этой теме нет новых непрочитанных сообщений. Charlies - Musiikkia Elokuvasta Julisteiden Liimaajat [1993, Blues Rock, Hard Rock, Psychedelic Rock, Prog Rock, MP3]

PriZraK

0 | 1

157.26 МБ

В этой теме нет новых непрочитанных сообщений. Сектор Газа - Концерт в Воткинске 15 октября 1993 года (2011, Remastered by Island) [1993, Punk Rock, MP3]

PriZraK

1 | 3

205 МБ

В этой теме нет новых непрочитанных сообщений. Lita Ford - Live & Deadly (Live) [2014, Hard Rock, MP3]

PriZraK

5 | 3

144.57 МБ

В этой теме нет новых непрочитанных сообщений. James Gang - Live in Concert [1971, Classic Rock, Hard Rock, Blues Rock, MP3]

PriZraK

0 | 1

104.69 МБ


Начать новую тему Ответить на тему  [ 1 сообщение ] 




Для Мосгорсуда, Роскомнадзора и рекламодателей:: mosgorsud-torrent[собачка]yandex.ru