Торрент файл
скачать торрент магнет ссылка Добавлен: 12 дек 2015, 16:50
Размер: 10.92 ГБ
Сидеров: 74
Личеров: 14
Автор

СообщениеДобавлено: 12 дек 2015, 16:50 

Не в сети
Зам. Админа
Аватара пользователя
Дата регистрации:
02 дек 2010, 12:39
Спасибо: 12461 / 214
Сообщения: 27968
Информация о фильме
Название: Первая Российская национальная музыкальная премия [11.12]
Год выхода: 2015
Ведущие: Александр Рева, Вера Брежнева.

О фильме:
Первая российская национальная музыкальная премия по итогам 2015 года. Российские меломаны в предвкушении большого праздника. Совсем скоро награды Первой российской национальной музыкальной премии будут вручены лучшим из лучших исполнителей, которых выбрали их поклонники и просто любители хорошей музыки. Премия учреждена продюсерами, авторами и исполнителями, среди которых ведущие представители музыкальной индустрии: Игорь Крутой, Игорь Матвиенко, Максим Фадеев, Константин Меладзе, Григорий Лепс, Виктор Дробыш, Иосиф Пригожин, Яна Рудковская, Филипп Киркоров, Николай Басков, Эмин Агаларов.
Премии будут вручены по номинациям: "Лучшая песня", "Лучшая поп-группа", "Лучший фолк-исполнитель", "Лучший рок-исполнитель", "Лучший электронный проект", "Лучший хип-хоп проект", "Открытие года", "Лучший саундтрек", "Лучшая исполнительница оперной музыки", "Лучший исполнитель оперной музыки", "Лучшее концертное шоу", "Лучшее музыкальное телевизионное шоу", "Лучший музыкальный продюсер", "Лучшая исполнительница популярной музыки", "Лучший исполнитель популярной музыки".
ЛУЧШАЯ ПЕСНЯ
· «Burito» – «Мама»
· «Время и стекло» – «Имя 505»
· Наргиз Закирова – «Ты моя нежность»
· «MBAND» – «Она вернется»
· IOWA – «Маршрутка»

ЛУЧШАЯ ПОП-ГРУППА
· A`Studio
· IOWA
· Винтаж
· MBAND
· SEREBRO

ЛУЧШИЙ ФОЛК-ИСПОЛНИТЕЛЬ
· Варвара
· Марина Девятова
· Тина Кузнецова
· Мельница
· Пелагея

ЛУЧШИЙ РОК-ИСПОЛНИТЕЛЬ
· БИ-2
· Наргиз Закирова
· Земфира
· Мумий Тролль
· Сергей Шнуров и гр. «Ленинград»

ЛУЧШИЙ ЭЛЕКТРОННЫЙ ПРОЕКТ
· Alien 24
· DJ Rudenko
· DJ Smash
· Therr Maitz
· Quest Pistols

ЛУЧШИЙ ХИП-ХОП ПРОЕКТ
· Баста
· Джиган
· Каста
· L`One
· Тимати

ОТКРЫТИЕ ГОДА
· «Время и стекло»
· Юлианна Караулова
· Егор Крид
· «MBAND»
· «Моя Мишель»

ЛУЧШИЙ САУНДТРЕК
· Баста – «Там, где нас нет» (фильм «Родина»)
· Полина Гагарина - «Кукушка» (фильм «Битва за Севастополь»)
· Ёлка - «Море внутри» (фильм «Без границ»)
· Дарина Иванова – «Верю я» (фильм «Савва. Сердце воина»)
· Максим Фадеев – «Breach the line» (фильм «Савва. Сердце воина»)

ЛУЧШАЯ ИСПОЛНИТЕЛЬНИЦА ОПЕРНОЙ МУЗЫКИ
· Аида Гарифуллина
· Хибла Герзмава
· Мария Гулегина
· Любовь Казарновская
· Анна Нетребко

ЛУЧШИЙ ИСПОЛНИТЕЛЬ ОПЕРНОЙ МУЗЫКИ
· Ильдар Абдразаков
· Василий Герелло
· Евгений Кунгуров
· Василий Ладюк
· Дмитрий Хворостовский

ЛУЧШЕЕ КОНЦЕРТНОЕ ШОУ
· Дима Билан – «33»
· Сергей Лазарев – The Best
· Ани Лорак – «Каролина»
· Валерий и Константин Меладзе – «Полста»
· «Новая волна 2015»

ЛУЧШЕЕ МУЗЫКАЛЬНОЕ ТЕЛЕВИЗИОННОЕ ШОУ
· Голос
· Главная сцена
· Точь–в–точь
· Достояние Республики
· Танцы на ТНТ

ЛУЧШИЙ МУЗЫКАЛЬНЫЙ ПРОДЮСЕР
· Виктор Дробыш
· Игорь Крутой
· Игорь Матвиенко
· Константин Меладзе
· Максим Фадеев

ЛУЧШАЯ ИСПОЛНИТЕЛЬНИЦА ПОПУЛЯРНОЙ МУЗЫКИ
· Валерия
· Полина Гагарина
· Ёлка
· Ани Лорак
· Нюша

ЛУЧШИЙ ИСПОЛНИТЕЛЬ ПОПУЛЯРНОЙ МУЗЫКИ
· Дима Билан
· Филипп Киркоров
· Сергей Лазарев
· Григорий Лепс
· Валерий Меладзе

Страна: Россия
Телеканал Россия HD
Продолжительность: 03:06:00
Перевод: не требуется

Файл
Качество: HDTV 1080i
Контейнер: TS
Кодек: H.264
Качество: HDTV
Видео: H264; 1920x1080 (16:9); 25.000 fps; ~7 790 Kbps
Звук: MPEG Audio Version 1 Layer 2, 48000Hz, 2 channels stereo 192 Кбит/сек
General
ID : 1 (0x1)
Complete name : S:111Первая Российская национальная премия 2015.12.11.ts
Format : MPEG-TS
File size : 10.9 GiB
Duration : 3h 6mn
Overall bit rate mode : Variable
Overall bit rate : 8 399 Kbps

Video
ID : 2292 (0x8F4)
Menu ID : 2291 (0x8F3)
Format : AVC
Format/Info : Advanced Video Codec
Format profile : High@L4.0
Format settings, CABAC : Yes
Format settings, ReFrames : 4 frames
Codec ID : 27
Duration : 3h 6mn
Bit rate : 7 790 Kbps
Width : 1 920 pixels
Height : 1 080 pixels
Display aspect ratio : 16:9
Frame rate : 25.000 fps
Color space : YUV
Chroma subsampling : 4:2:0
Bit depth : 8 bits
Scan type : MBAFF
Bits/(Pixel*Frame) : 0.150
Stream size : 10.1 GiB (93%)

Audio
ID : 2295 (0x8F7)
Menu ID : 2291 (0x8F3)
Format : MPEG Audio
Format version : Version 1
Format profile : Layer 2
Mode : Joint stereo
Mode extension : Intensity Stereo + MS Stereo
Codec ID : 3
Duration : 3h 6mn
Bit rate mode : Constant
Bit rate : 192 Kbps
Channel(s) : 2 channels
Sampling rate : 48.0 KHz
Compression mode : Lossy
Stream size : 256 MiB (2%)
Language : English




реклама партнёра


Вернуться к началу
 Профиль  
 
   Похожие торренты   Автор   Торрент   Размер 
В этой теме нет новых непрочитанных сообщений. Новогодний голубой огонек 2015 (Россия) [Концерт, музыкально-развлекательная телепередача, 2015] HDTV 1080i

Dracon

209 | 22

18.42 ГБ

В этой теме нет новых непрочитанных сообщений. Новогодний голубой огонек-2014 [Концерт, музыкально-развлекательная телепередача, 2014] HDTVRip

Ανδρέας

765 | 144

3.74 ГБ

В этой теме нет новых непрочитанных сообщений. Концерт Ирины Аллегровой в Олимпийском (Россия) [Концерт, 2015] HDTV 1080i

Dracon

335 | 52

6.13 ГБ

В этой теме нет новых непрочитанных сообщений. Юбилейный концерт Евгения Крылатова [03.01] (Россия) [Концерт, 2015] HDTV 1080i

Dracon

18 | 3

5.49 ГБ

В этой теме нет новых непрочитанных сообщений. Торжественный концерт ко Дню Победы. Красная площадь (Россия) [Концерт, 2015] HDTV 1080i

Dracon

648 | 139

8.98 ГБ

В этой теме нет новых непрочитанных сообщений. Юбилейный концерт Игоря Крутого из Государственного Кремлевского дворца [03.01] (Россия) [Концерт, 2015] HDTV 1080i

Dracon

33 | 2

9.63 ГБ

В этой теме нет новых непрочитанных сообщений. Праздничное шоу Валентина Юдашкина [эфир 2015.03.08] (Россия) [Тв-шоу, концерт, 2015] HDTV 1080i

Dracon

16 | 2

6.43 ГБ


Начать новую тему Ответить на тему  [ 1 сообщение ] 




Для Мосгорсуда, Роскомнадзора и рекламодателей:: mosgorsud-torrent[собачка]yandex.ru