Торрент файл
скачать торрент магнет ссылка Добавлен: 05 ноя 2015, 16:16
Размер: 6.34 ГБ
Сидеров: 672
Личеров: 139
Автор

СообщениеДобавлено: 05 ноя 2015, 16:16 

Не в сети
Зам. Админа
Аватара пользователя
Дата регистрации:
02 дек 2010, 12:39
Спасибо: 12460 / 214
Сообщения: 27968
Год выхода: 2015
Жанр: Концерт
Режиссер: Светлана Ханова
В ролях: Пелагея, Павел Дешура, Саня Савиных, Антон Цыпкин, Дмитрий Зеленский, Артур Серовский

О фильме:
Концертная программа группы "ПЕЛАГЕЯ", составленная из романсов, народных песен, рок-н-ролльных номеров, песен из кинофильмов, была впервые показана 17 ноября 2012 года.
В Москве презентация программы состоялась в Crocus City Hall при участии специальных гостей – Николая Расторгуева и Николая Носкова.
Эфир 2015-11-04 Первый канал.

01. Где же ты, мечта
02. Пташечка
03. Любовь - волшебная страна
04. Розы
05. К чему нам быть на "ты"
06. Песня о птицах
07. Я ехала домой
08. Вишня белоснежная
09. Ой, да не вечер (совместно с Н.Носковым)
10. На улице дождик
11. Под ракитою зелёной
12. Не для тебя
13. У колодезя вода
14. Полынь горькая
15. Горилка
16. Конь (совместно с Н.Расторгуевым)
17. Вишня
18. Казак


Официальный сайт

Страна: Россия
Студия: Первый канал
Продолжительность: 01:23:34
Перевод: Не требуется

Кодек: MPEG-4 AVC
Качество: HDTV
Видео: 10.100 Кбит/с, 1920x1080, 25.000 кадр/с
Звук: AC3, 6 ch, 384 Кбит/с
MP2, 2 ch, 192 Кбит/с
General
Unique ID : 99035350468252954966237641140838277721 (0x4A8183C3821D4165C816A7B927472259)
Complete name : G:ПЕЛАГЕЯ - Вишнёвый сад HD.2012-2015.HDTV.1080i.mkv
Format : Matroska
Format version : Version 2
File size : 6.34 GiB
Duration : 1h 23mn
Overall bit rate : 10.9 Mbps
Writing application : Lavf54.63.104
Writing library : Lavf54.63.104

Video
ID : 1
Format : AVC
Format/Info : Advanced Video Codec
Format profile : Main@L4
Format settings, CABAC : Yes
Format settings, ReFrames : 4 frames
Codec ID : V_MPEG4/ISO/AVC
Duration : 1h 23mn
Bit rate : 10.1 Mbps
Width : 1 920 pixels
Height : 1 080 pixels
Display aspect ratio : 16:9
Frame rate mode : Constant
Frame rate : 25.000 fps
Standard : Component
Color space : YUV
Chroma subsampling : 4:2:0
Bit depth : 8 bits
Scan type : Interlaced
Scan order : Top Field First
Bits/(Pixel*Frame) : 0.194
Stream size : 5.88 GiB (93%)
Default : No
Forced : No
Color range : Limited
Color primaries : BT.709
Transfer characteristics : BT.709
Matrix coefficients : BT.709

Audio #1
ID : 2
Format : AC-3
Format/Info : Audio Coding 3
Mode extension : CM (complete main)
Format settings, Endianness : Big
Codec ID : A_AC3
Duration : 1h 23mn
Bit rate mode : Constant
Bit rate : 384 Kbps
Channel(s) : 6 channels
Channel positions : Front: L C R, Side: L R, LFE
Sampling rate : 48.0 KHz
Compression mode : Lossy
Stream size : 230 MiB (4%)
Language : Russian
Default : Yes
Forced : No

Audio #2
ID : 3
Format : MPEG Audio
Format version : Version 1
Format profile : Layer 2
Codec ID : A_MPEG/L2
Codec ID/Hint : MP2
Duration : 1h 23mn
Bit rate mode : Constant
Bit rate : 192 Kbps
Channel(s) : 2 channels
Sampling rate : 48.0 KHz
Compression mode : Lossy
Stream size : 115 MiB (2%)
Language : Russian
Default : No
Forced : No




реклама партнёра


Вернуться к началу
 Профиль  
 
   Похожие торренты   Автор   Торрент   Размер 
В этой теме нет новых непрочитанных сообщений. Концерт Ирины Аллегровой в Олимпийском (Россия) [Концерт, 2015] HDTV 1080i

Dracon

335 | 52

6.13 ГБ

В этой теме нет новых непрочитанных сообщений. Юбилейный концерт Евгения Крылатова [03.01] (Россия) [Концерт, 2015] HDTV 1080i

Dracon

18 | 3

5.49 ГБ

В этой теме нет новых непрочитанных сообщений. Торжественный концерт ко Дню Победы. Красная площадь (Россия) [Концерт, 2015] HDTV 1080i

Dracon

648 | 139

8.98 ГБ

В этой теме нет новых непрочитанных сообщений. Юбилейный концерт Игоря Крутого из Государственного Кремлевского дворца [03.01] (Россия) [Концерт, 2015] HDTV 1080i

Dracon

33 | 2

9.63 ГБ

В этой теме нет новых непрочитанных сообщений. Праздничное шоу Валентина Юдашкина [эфир 2015.03.08] (Россия) [Тв-шоу, концерт, 2015] HDTV 1080i

Dracon

16 | 2

6.43 ГБ

В этой теме нет новых непрочитанных сообщений. Новогодний голубой огонек 2015 (Россия) [Концерт, музыкально-развлекательная телепередача, 2015] HDTV 1080i

Dracon

209 | 21

18.42 ГБ

В этой теме нет новых непрочитанных сообщений. Песня года [01-02 из 02] (Россия) [Концерт, музыкальноe шоу, 2015] HDTV 1080i

Dracon

177 | 26

17.9 ГБ


Начать новую тему Ответить на тему  [ 1 сообщение ] 




Для Мосгорсуда, Роскомнадзора и рекламодателей:: mosgorsud-torrent[собачка]yandex.ru