Торрент файл
скачать торрент магнет ссылка Добавлен: 25 июн 2015, 10:59
Размер: 3.01 ГБ
Сидеров: 1
Личеров: 1
Автор

СообщениеДобавлено: 25 июн 2015, 10:59 

Не в сети
Зам. Админа
Аватара пользователя
Дата регистрации:
02 дек 2010, 12:39
Спасибо: 12461 / 214
Сообщения: 27968
Год выхода: 2015
Жанр: Музыка
Режиссер: Игорь Матвиенко
В ролях: гр. "ЛЮБЭ"

О фильме: Первый канал представил концертную программу «Комбат» группы «Любэ» к юбилею Игоря Матвиенко. В этот праздничный вечер были исполнены всеми любимые хиты группы, а также композиции с нового альбома. Группа «Любэ» - это не просто самый популярный и востребованный в России музыкальный коллектив. «Любэ» - это самое настоящее национальное достояние, группа, в песнях которой воплощается душа русского народа и отражается невероятная красота нашей бескрайней отчизны! Концерты «Любэ» собирают самых разных зрителей. И это не удивительно, ведь мало кто еще может вызвать у публики такие сильные эмоции. Каждый найдет в них что-то свое, сокровенное, личное... Веселые и грустные, ностальгические или «на злобу дня» - эти песни удивительно отражают нашу жизнь во всей ее полноте.

Качество: HDTVRip [720p]
Видео: MPEG4 Video (H264) , 1280x720 25fps , 4 000 Kbps
Аудио: Dolby AC3 , 48000Hz , 2 ch , 384kbps
Продолжительность: 01:37:49
Перевод: Не требуется
01. За тебя, Родина-мать
02. Прорвемся (Опера)
03. Березы
04. Было время, был я беден
05. Позови меня тихо по имени
06. Дуся-агрегат
07. Бабушка
08. Конь
09. Улетай на крыльях ветра
10. Давай наяривай
11. Ребята нашего двора
12. Все зависит от Бога и немного от нас
13. Русские
14. Главное, что есть ты у меня
15. За бортом
16. Давай за...
17. Там, за туманами
18. Дорога
19. Батька Махно
20. Не валяй дурака, Америка
21. Восточный фронт
22. Ты неси меня, река
23. Комбат
24. Атас
25. Станция Таганская

General
Unique ID                                : 200517600389020827331261146568473863181 (0x96DA48FC170D77E58F49FBC0595E640D)
Complete name                            : G:ФильмыLube - Combat. Concert For The Anniversary Of Igor MatvienkoLube - Combat. Concert For The Anniversary Of Igor Matvienko 13.06.2015.mkv
Format                                   : Matroska
Format version                           : Version 2
File size                                : 3.01 GiB
Duration                                 : 1h 37mn
Overall bit rate                         : 4 407 Kbps
Encoded date                             : UTC 2015-06-24 13:37:53
Writing application                      : mkvmerge v6.1.0 ('Old Devil') built on Mar  4 2013 09:10:42
Writing library                          : libebml v1.3.0 + libmatroska v1.4.0

Video
ID                                       : 1
Format                                   : AVC
Format/Info                              : Advanced Video Codec
Format profile                           : High@L3.1
Format settings, CABAC                   : Yes
Format settings, ReFrames                : 4 frames
Codec ID                                 : V_MPEG4/ISO/AVC
Duration                                 : 1h 37mn
Bit rate                                 : 4 000 Kbps
Width                                    : 1 280 pixels
Height                                   : 720 pixels
Display aspect ratio                     : 16:9
Frame rate mode                          : Constant
Frame rate                               : 25.000 fps
Color space                              : YUV
Chroma subsampling                       : 4:2:0
Bit depth                                : 8 bits
Scan type                                : Progressive
Bits/(Pixel*Frame)                       : 0.174
Stream size                              : 2.69 GiB (89%)
Writing library                          : x264 core 130 r2273 b3065e6
Encoding settings                        : cabac=1 / ref=2 / deblock=1:0:0 / analyse=0x3:0x113 / me=hex / subme=4 / psy=1 / psy_rd=1.00:0.00 / mixed_ref=0 / me_range=16 / chroma_me=1 / trellis=1 / 8x8dct=1 / cqm=0 / deadzone=21,11 / fast_pskip=1 / chroma_qp_offset=0 / threads=12 / lookahead_threads=3 / sliced_threads=0 / nr=0 / decimate=1 / interlaced=0 / bluray_compat=0 / constrained_intra=0 / bframes=3 / b_pyramid=2 / b_adapt=1 / b_bias=0 / direct=1 / weightb=1 / open_gop=0 / weightp=1 / keyint=250 / keyint_min=25 / scenecut=40 / intra_refresh=0 / rc_lookahead=20 / rc=abr / mbtree=1 / bitrate=4000 / ratetol=1.0 / qcomp=0.60 / qpmin=0 / qpmax=69 / qpstep=4 / ip_ratio=1.40 / aq=1:1.00
Default                                  : Yes
Forced                                   : No

Audio
ID                                       : 2
Format                                   : AC-3
Format/Info                              : Audio Coding 3
Mode extension                           : CM (complete main)
Format settings, Endianness              : Big
Codec ID                                 : A_AC3
Duration                                 : 1h 37mn
Bit rate mode                            : Constant
Bit rate                                 : 384 Kbps
Channel(s)                               : 2 channels
Channel positions                        : Front: L R
Sampling rate                            : 48.0 KHz
Bit depth                                : 16 bits
Compression mode                         : Lossy
Stream size                              : 269 MiB (9%)
Default                                  : Yes
Forced                                   : No









реклама партнёра


Вернуться к началу
 Профиль  
 
   Похожие торренты   Автор   Торрент   Размер 
В этой теме нет новых непрочитанных сообщений. Концерт к юбилею Людмилы Гурченко «Еще не раз вы вспомните меня...» (Россия) [Концерт, 2015] HDTVRip

Dracon

112 | 34

1.26 ГБ

В этой теме нет новых непрочитанных сообщений. Юбилейный концерт Игоря Крутого из Государственного Кремлевского дворца [03.01] (Россия) [Концерт, 2015] SATRip

Dracon

96 | 5

1.92 ГБ

В этой теме нет новых непрочитанных сообщений. Юбилейный концерт Игоря Крутого из Государственного Кремлевского дворца [03.01] (Россия) [Концерт, 2015] HDTV 1080i

Dracon

33 | 2

9.63 ГБ

В этой теме нет новых непрочитанных сообщений. Праздничный концерт День России в Крыму (Россия) [Концерт, 2015] HDTVRip

Dracon

130 | 11

1.36 ГБ

В этой теме нет новых непрочитанных сообщений. Праздничный концерт к Дню сотрудника органов внутренних дел (Россия) [Концерт, 2015] HDTVRip

Dracon

340 | 83

1.85 ГБ

В этой теме нет новых непрочитанных сообщений. Торжественный концерт ко Дню Победы. Красная площадь (Россия) [Концерт, 2015] HDTVRip

Dracon

1084 | 179

1.47 ГБ

В этой теме нет новых непрочитанных сообщений. Юбилейный концерт Надежды Кадышевой (Россия) [Концерт, 2015] HDTVRip

Dracon

6 | 3

1.37 ГБ


СообщениеДобавлено: 02 авг 2015, 17:57 

Не в сети
Дата регистрации:
02 авг 2015, 17:54
Спасибо: 0 / 0
Сообщения: 1
Откуда: Россия
Обажаю Любэ! Это при том, что Растаргуев не служил 8-)


Вернуться к началу
 Профиль Отправить личное сообщение  
 
Начать новую тему Ответить на тему  [ Сообщений: 2 ] 




Для Мосгорсуда, Роскомнадзора и рекламодателей:: mosgorsud-torrent[собачка]yandex.ru