Торрент файл
скачать торрент магнет ссылка Добавлен: 07 дек 2014, 12:42
Размер: 267.49 МБ
Сидеров: 9
Личеров: 3
Автор

СообщениеДобавлено: 07 дек 2014, 12:42 

Не в сети
Зам. Админа
Аватара пользователя
Дата регистрации:
02 дек 2010, 12:39
Спасибо: 12461 / 214
Сообщения: 27968
Год выхода: 2013
Жанр: Cabaret, Punk, Shanson, Blues

Состав:
Мартин Жак (Martyn Jacques) - вокал, аккордеон, клавишные, гитара.
Майк Пикеринг (Mike Pickering) - ударные и перкуссия.
Эдриан Хьюдж (Adrian Huge) - бас, музыкальная пила, вокал.

К сожалению, видеоклипы в высоком качестве от этой группы, большая редкость. Тем приятнее будет посмотреть три клипа, с концерта группы "The Tiger Lillies" из клуба "Principal Club", Салоники (Греция). На оф. сайте группы ссылка, именно на эти три клипа. Оригинала видео нет! Видео с YouTube, к сожалению подрезанный звук... Видео грамотно снято несколькими камерами! Наслаждаемся!

Официальный сайт

Официальный русский сайт
Страна: Англия
Продолжительность: 00:04:49, 00:04:10, 00:06:05
Перевод: оригинал

Файл
Качество: WEB-DL
Видео: AVC, 2024 Кбит/сек, 1920x1080, 25.000 кадр/сек
Аудио: AAC LC, 126 Кбит/сек, 2 канала, 44.1 КГц



Общее
Полное имя : VideosThe Tiger LilliesTeardrops by The Tiger Lillies - LIVE at Principal Club.mp4
Формат : MPEG-4
Профиль формата : Base Media
Идентификатор кодека : isom
Размер файла : 94,0 Мбайт
Продолжительность : 6 м. 5 с.
Общий поток : 2155 Кбит/сек
Программа кодирования : Lavf54.63.104

Видео
Идентификатор : 1
Формат : AVC
Формат/Информация : Advanced Video Codec
Профиль формата : High@L4.0
Параметр CABAC формата : Да
Параметр ReFrames формата : 3 кадра
Идентификатор кодека : avc1
Идентификатор кодека/Информация : Advanced Video Coding
Продолжительность : 6 м. 5 с.
Битрейт : 2024 Кбит/сек
Ширина : 1920 пикселей
Высота : 1080 пикселей
Соотношение сторон : 16:9
Режим частоты кадров : Постоянный
Частота кадров : 25,000 кадров/сек
Цветовое пространство : YUV
Субдискретизация насыщенности : 4:2:0
Битовая глубина : 8 бит
Тип развёртки : Прогрессивная
Бит/(Пиксели*Кадры) : 0.039
Размер потока : 88,3 Мбайт (94%)

Аудио
Идентификатор : 2
Формат : AAC
Формат/Информация : Advanced Audio Codec
Профиль формата : LC
Идентификатор кодека : 40
Продолжительность : 6 м. 5 с.
Вид битрейта : Постоянный
Битрейт : 126 Кбит/сек
Каналы : 2 канала
Расположение каналов : Front: L R
Частота : 44,1 КГц
Метод сжатия : С потерями
Размер потока : 5,48 Мбайт (6%)





реклама партнёра


Вернуться к началу
 Профиль  
 
   Похожие торренты   Автор   Торрент   Размер 
В этой теме нет новых непрочитанных сообщений. The Tiger Lillies - Cockatoo Prison [2010, Dark Punk Cabaret, Humor Punk, Post Punk, WMA]

PriZraK

1 | 1

102.16 МБ

В этой теме нет новых непрочитанных сообщений. The Tiger Lillies - Live at the New Players Theatre [2009, Dark Punk Cabaret, Humor Punk, Post Punk, MP3]

PriZraK

0 | 1

166.77 МБ

В этой теме нет новых непрочитанных сообщений. The Tiger Lillies - Either Or [2013, Dark Cabaret, Avant-Garde, MP3]

PriZraK

0 | 1

162.11 МБ

В этой теме нет новых непрочитанных сообщений. The Tiger Lillies - Lulu: A Murder Ballad [2014, Dark Cabaret, Avant-Garde, MP3]

PriZraK

4 | 2

169.94 МБ

В этой теме нет новых непрочитанных сообщений. AlterRed – The Time It Takes To Smile [2013, Darkwave, Electro, Dark Cabaret, Synthpop, MP3]

PriZraK

1 | 2

109.17 МБ

В этой теме нет новых непрочитанных сообщений. Star & Dagger - Tomorrowland Blues [2013, Hard Rock,Blues, MP3]

PriZraK

17 | 1

74.5 МБ

В этой теме нет новых непрочитанных сообщений. Against Me! - Transgender Dysphoria Blues [2014, Punk Rock, MP3]

PriZraK

0 | 1

87.98 МБ


Начать новую тему Ответить на тему  [ 1 сообщение ] 




Для Мосгорсуда, Роскомнадзора и рекламодателей:: mosgorsud-torrent[собачка]yandex.ru