Торрент файл
скачать торрент магнет ссылка Добавлен: 07 дек 2014, 12:42
Размер: 267.49 МБ
Сидеров: 9
Личеров: 3
Автор

СообщениеДобавлено: 07 дек 2014, 12:42 

Не в сети
Зам. Админа
Аватара пользователя
Дата регистрации:
02 дек 2010, 12:39
Спасибо: 12623 / 214
Сообщения: 28012
Год выхода: 2013
Жанр: Cabaret, Punk, Shanson, Blues

Состав:
Мартин Жак (Martyn Jacques) - вокал, аккордеон, клавишные, гитара.
Майк Пикеринг (Mike Pickering) - ударные и перкуссия.
Эдриан Хьюдж (Adrian Huge) - бас, музыкальная пила, вокал.

К сожалению, видеоклипы в высоком качестве от этой группы, большая редкость. Тем приятнее будет посмотреть три клипа, с концерта группы "The Tiger Lillies" из клуба "Principal Club", Салоники (Греция). На оф. сайте группы ссылка, именно на эти три клипа. Оригинала видео нет! Видео с YouTube, к сожалению подрезанный звук... Видео грамотно снято несколькими камерами! Наслаждаемся!

Официальный сайт

Официальный русский сайт
Страна: Англия
Продолжительность: 00:04:49, 00:04:10, 00:06:05
Перевод: оригинал

Файл
Качество: WEB-DL
Видео: AVC, 2024 Кбит/сек, 1920x1080, 25.000 кадр/сек
Аудио: AAC LC, 126 Кбит/сек, 2 канала, 44.1 КГц



Общее
Полное имя : VideosThe Tiger LilliesTeardrops by The Tiger Lillies - LIVE at Principal Club.mp4
Формат : MPEG-4
Профиль формата : Base Media
Идентификатор кодека : isom
Размер файла : 94,0 Мбайт
Продолжительность : 6 м. 5 с.
Общий поток : 2155 Кбит/сек
Программа кодирования : Lavf54.63.104

Видео
Идентификатор : 1
Формат : AVC
Формат/Информация : Advanced Video Codec
Профиль формата : High@L4.0
Параметр CABAC формата : Да
Параметр ReFrames формата : 3 кадра
Идентификатор кодека : avc1
Идентификатор кодека/Информация : Advanced Video Coding
Продолжительность : 6 м. 5 с.
Битрейт : 2024 Кбит/сек
Ширина : 1920 пикселей
Высота : 1080 пикселей
Соотношение сторон : 16:9
Режим частоты кадров : Постоянный
Частота кадров : 25,000 кадров/сек
Цветовое пространство : YUV
Субдискретизация насыщенности : 4:2:0
Битовая глубина : 8 бит
Тип развёртки : Прогрессивная
Бит/(Пиксели*Кадры) : 0.039
Размер потока : 88,3 Мбайт (94%)

Аудио
Идентификатор : 2
Формат : AAC
Формат/Информация : Advanced Audio Codec
Профиль формата : LC
Идентификатор кодека : 40
Продолжительность : 6 м. 5 с.
Вид битрейта : Постоянный
Битрейт : 126 Кбит/сек
Каналы : 2 канала
Расположение каналов : Front: L R
Частота : 44,1 КГц
Метод сжатия : С потерями
Размер потока : 5,48 Мбайт (6%)





реклама партнёра


Вернуться к началу
 Профиль  
 
   Похожие торренты   Автор   Торрент   Размер 
В этой теме нет новых непрочитанных сообщений. Liliane Tiger Pack (41 ролик)(aka Lilian Tiger, Lillianne Tiger, Ivette, Lillian Tiger, Lilian, Liliane, Lucy Tiger, Lilien Tiger, Lilliane Tiger)[Straight, Anal, Double Penetration, Lesbo, Blonde, European]

salma3

12 | 140

17.18 ГБ

В этой теме нет новых непрочитанных сообщений. [BurningAngel.com] Joanna Angel, Giselle Palmer - Babysitter Auditions - Giselle Palmer (03.08.2017) 1080p [2017 г., MILF & Young, Punk Porn, Punk Girl, Babysitter, Tattoo, Piercing, Blowjob, All sex, 1080p]

salma3

13 | 4

1.05 ГБ

В этой теме нет новых непрочитанных сообщений. Тигровые отряды / Les Brigades du Tigre [Боевик, криминал, приключения, 2006] BDRip 720р, Mvo

salma3

116 | 45

4.71 ГБ

В этой теме нет новых непрочитанных сообщений. Крадущийся тигр, затаившийся дракон: Меч судьбы / Crouching Tiger, Hidden Dragon: Sword of Destiny [Фэнтези, Боевик, Драма, Приключения, 2016] WEB-DLRip 1080p, Mvo+Sub

salma3

0 | 0

6.43 ГБ

В этой теме нет новых непрочитанных сообщений. Darrell Mansfield (feat. Greg Martin) - Kentucky Blues [Blues-Rock, 2014] MP3 / 320kbps

salma3

3 | 0

60.38 МБ

В этой теме нет новых непрочитанных сообщений. CSM Blues Band - Family Affair [2014, Jazz,Blues, MP3]

salma3

0 | 1

117.28 МБ

В этой теме нет новых непрочитанных сообщений. [SexBabesVR.com] Victoria Pure (Taste Of The Past) [2017 г., POV, Cabaret, Babe, Blowjob, Hardcore, Face cumshot, All sex, Oculus 4k, Virtual Reality, VR]

salma3

2 | 0

7.61 ГБ


Начать новую тему Ответить на тему  [ 1 сообщение ] 




Для Мосгорсуда, Роскомнадзора и рекламодателей:: mosgorsud-torrent[собачка]yandex.ru