Торрент файл
скачать торрент магнет ссылка Добавлен: 28 авг 2014, 10:10
Размер: 4.43 ГБ
Сидеров: 233
Личеров: 14
Автор

СообщениеДобавлено: 28 авг 2014, 10:10 

Не в сети
Зам. Админа
Аватара пользователя
Дата регистрации:
02 дек 2010, 12:39
Спасибо: 12461 / 214
Сообщения: 27968
Год выпуска: 2014
Жанр: Концерт

О фильме:
MTV Video Music Awards – ежегодная церемония награждения за создание видеоклипов, основанная телеканалом MTV в 1984 году. На арене The Forum в Инглвуде (штат Калифорния) состоялось одно из ключевых событий года - MTV Video Music Awards 2014. Музыкальная премия, которая выделяет самые яркие видеоклипы года, является одной из самых веселых и ожидаемых. Она всегда радует нас множеством запоминающихся моментов. И в этот раз свои самые свежие хиты исполнили наиболее популярные звезды сезона.

Страна: США
Студия: MTV
Продолжительность: 01:51:30
Перевод: Не требуется

Кодек: MPEG-4 AVC
Качество: HDTVRip 720p
Видео: 5300 Кбит/с, 1280x720, 23.976 кадр/с
Звук: Английский (AC3, 6 ch, 384 Кбит/с)

General
Unique ID : 244146395302206926167763105907130001956 (0xB7ACE2A6790529D888D5A82AFF786A24)
Complete name : C:UsersYandexDiskДокументыMTV.Video.Music.Awards.2014.x264.HDTVRip.720p.MediaClub.mkv
Format : Matroska
Format version : Version 2
File size : 4.43 GiB
Duration : 1h 51mn
Overall bit rate : 5 686 Kbps
Movie name : -=Released by Kortec for MediaClub=-
Encoded date : UTC 2014-08-27 19:16:58
Writing application : mkvmerge v4.0.0 ('The Stars were mine') built on Jun 6 2010 16:18:42
Writing library : libebml v1.0.0 + libmatroska v1.0.0

Video
ID : 1
Format : AVC
Format/Info : Advanced Video Codec
Format profile : High@L4.1
Format settings, CABAC : Yes
Format settings, ReFrames : 9 frames
Codec ID : V_MPEG4/ISO/AVC
Duration : 1h 51mn
Bit rate : 5 300 Kbps
Width : 1 280 pixels
Height : 720 pixels
Display aspect ratio : 16:9
Frame rate mode : Constant
Frame rate : 23.976 fps
Color space : YUV
Chroma subsampling : 4:2:0
Bit depth : 8 bits
Scan type : Progressive
Bits/(Pixel*Frame) : 0.240
Stream size : 4.04 GiB (91%)
Writing library : x264 core 130 r2273 b3065e6
Encoding settings : cabac=1 / ref=9 / deblock=1:-2:-2 / analyse=0x3:0x133 / me=umh / subme=11 / psy=1 / psy_rd=1.00:0.10 / mixed_ref=1 / me_range=32 / chroma_me=1 / trellis=2 / 8x8dct=1 / cqm=0 / deadzone=21,11 / fast_pskip=0 / chroma_qp_offset=-3 / threads=6 / lookahead_threads=1 / sliced_threads=0 / nr=0 / decimate=0 / interlaced=0 / bluray_compat=0 / constrained_intra=0 / bframes=8 / b_pyramid=2 / b_adapt=2 / b_bias=0 / direct=3 / weightb=1 / open_gop=0 / weightp=2 / keyint=250 / keyint_min=23 / scenecut=40 / intra_refresh=0 / rc=2pass / mbtree=0 / bitrate=5300 / ratetol=1.0 / qcomp=0.60 / qpmin=0 / qpmax=69 / qpstep=4 / cplxblur=20.0 / qblur=0.5 / ip_ratio=1.40 / pb_ratio=1.30 / aq=1:0.80
Language : English
Default : No
Forced : No

Audio
ID : 2
Format : AC-3
Format/Info : Audio Coding 3
Mode extension : CM (complete main)
Format settings, Endianness : Big
Codec ID : A_AC3
Duration : 1h 51mn
Bit rate mode : Constant
Bit rate : 384 Kbps
Channel(s) : 6 channels
Channel positions : Front: L C R, Side: L R, LFE
Sampling rate : 48.0 KHz
Bit depth : 16 bits
Compression mode : Lossy
Stream size : 306 MiB (7%)
Language : English
Default : Yes
Forced : Yes




реклама партнёра


Вернуться к началу
 Профиль  
 
   Похожие торренты   Автор   Торрент   Размер 
В этой теме нет новых непрочитанных сообщений. Голос [03x01-17] [Музыка, концерт, 2014] HDTVRip 720p

Dracon

47 | 58

47.18 ГБ

В этой теме нет новых непрочитанных сообщений. Комбат Любэ. Концерт к юбилею Игоря Матвиенко (Россия) [Концерт, 2015] HDTVRip 720p

Dracon

1 | 1

3.01 ГБ

В этой теме нет новых непрочитанных сообщений. Михаил Жванецкий. Юбилейный концерт [Концерт, юмор, 2014] HDTVRip

Dracon

245 | 5

1.21 ГБ

В этой теме нет новых непрочитанных сообщений. Леонид Агутин. Юбилейный концерт [Концерт, поп, 2014] HDTVRip

Dracon

47 | 3

1.37 ГБ

В этой теме нет новых непрочитанных сообщений. Новогодний концерт группы «Ленинград» [Концерт, рок, 2014] HDTVRip

Dracon

105 | 4

828.27 МБ

В этой теме нет новых непрочитанных сообщений. Евровидение-2014. 1-й полуфинал / Eurovision-2014. First Semi-Final [Концерт, шоу, 2014] HDTVRip

Dracon

17 | 2

1.6 ГБ

В этой теме нет новых непрочитанных сообщений. Евровидение-2014. Финал / Eurovision-2014. Final [Концерт, шоу, 2014] HDTVRip

Dracon

0 | 3

2.65 ГБ


Начать новую тему Ответить на тему  [ 1 сообщение ] 




Для Мосгорсуда, Роскомнадзора и рекламодателей:: mosgorsud-torrent[собачка]yandex.ru