Торрент файл
скачать торрент магнет ссылка Добавлен: 13 янв 2014, 15:11
Размер: 7.96 ГБ
Сидеров: 261
Личеров: 302
Автор

СообщениеДобавлено: 13 янв 2014, 15:11 

Не в сети
Зам. Админа
Аватара пользователя
Дата регистрации:
02 дек 2010, 12:39
Спасибо: 12461 / 214
Сообщения: 27968
Год выхода: 2013
Жанр: мюзикл, музыка, приключения
Режиссер: Нимрод Антал
В ролях: Дэйн ДеХаан, Джеймс Хетфилд, Ларс Ульрих, Кирк Хеммет, Роберт Трухильо, Кайл Томсон,
Тоби Харгрейв, МакКензи Грэй, Питер Брайант, Хротгар Мэтьюз и др.
О фильме:
Участник технической команды группы Metallica получает задание — привезти сумку, содержимое которой необходимо группе для выступления.
Сопровождая таинственную сумку, он попадает в невероятные передряги!
Картина представляет собой смесь игрового фильма и концерта.



Страна: США
Продолжительность: 01:32:44
Перевод: Оригинал (на немногочисленные
диалоги перевод отсутствует)
Качество: MKV, BDRip 1080p
Видео: V_MPEG4/AVC, 1920x800 (2.40:1), ~ 8574 Kbps, 23.976 fps
Звук: Аудио 1: English AC3 5.1, 48 kHz, 448 kbps, 16-bit
Аудио 2: English DTS 5.1, ~ 1509 kbps, 48 kHz, 24-bit
Аудио 3: English DTS 2.0, ~ 1509 kbps, 48 kHz, 24-bit

Сэмпл: Скачать



General
Unique ID : 220468814968521872805741796971452025436
(0xA5DCBFCF2F660A23A769661F6A4FCA5C)
Complete name : Metallica.Through.The.Never.2013.1080p.mkv
Format : Matroska
Format version : Version 2
File size : 7.96 GiB
Duration : 1h 32mn
Overall bit rate : 12.3 Mbps
Movie name : Metallica.Through.The.Never.2013.1080p V_ATAKy
Encoded date : UTC 2014-01-13 10:05:30
Writing application : mkvmerge v5.5.0 ('Healer') built on Apr 9 2012 13:24:38
Writing library : libebml v1.2.3 + libmatroska v1.3.0

Video
ID : 1
Format : AVC
Format/Info : Advanced Video Codec
Format profile : High@L4.1
Format settings, CABAC : Yes
Format settings, ReFrames : 5 frames
Muxing mode : Header stripping
Codec ID : V_MPEG4/ISO/AVC
Duration : 1h 32mn
Bit rate : 8 574 Kbps
Width : 1 920 pixels
Height : 800 pixels
Display aspect ratio : 2.40:1
Frame rate mode : Constant
Frame rate : 23.976 fps
Color space : YUV
Chroma subsampling : 4:2:0
Bit depth : 8 bits
Scan type : Progressive
Bits/(Pixel*Frame) : 0.233
Stream size : 5.56 GiB (70%)
Title : Metallica.Through.The.Never.2013.1080p
Language : English
Default : Yes
Forced : No

Audio #1
ID : 2
Format : AC-3
Format/Info : Audio Coding 3
Mode extension : CM (complete main)
Format settings, Endianness : Big
Muxing mode : Header stripping
Codec ID : A_AC3
Duration : 1h 32mn
Bit rate mode : Constant
Bit rate : 448 Kbps
Channel(s) : 6 channels
Channel positions : Front: L C R, Side: L R, LFE
Sampling rate : 48.0 KHz
Bit depth : 16 bits
Compression mode : Lossy
Stream size : 297 MiB (4%)
Title : AC3 5.1 V_ATAKy
Language : English
Default : Yes
Forced : No

Audio #2
ID : 3
Format : DTS
Format/Info : Digital Theater Systems
Mode : 16
Format settings, Endianness : Big
Muxing mode : Header stripping
Codec ID : A_DTS
Duration : 1h 32mn
Bit rate mode : Constant
Bit rate : 1 509 Kbps
Channel(s) : 6 channels
Channel positions : Front: L C R, Side: L R, LFE
Sampling rate : 48.0 KHz
Bit depth : 24 bits
Compression mode : Lossy
Stream size : 1 001 MiB (12%)
Title : DTS 5.1 Ch
Language : English
Default : No
Forced : No

Audio #3
ID : 4
Format : DTS
Format/Info : Digital Theater Systems
Mode : 16
Format settings, Endianness : Big
Muxing mode : Header stripping
Codec ID : A_DTS
Duration : 1h 32mn
Bit rate mode : Constant
Bit rate : 1 509 Kbps
Channel(s) : 2 channels
Channel positions : Front: L R
Sampling rate : 48.0 KHz
Bit depth : 24 bits
Compression mode : Lossy
Stream size : 1 001 MiB (12%)
Title : DTS 2.0 Ch
Language : English
Default : No
Forced : No

Menu
00:00:00.000 : en:00:00:00.000
00:03:48.228 : en:00:03:48.228
00:05:17.317 : en:00:05:17.317
00:10:56.155 : en:00:10:56.155
00:15:01.359 : en:00:15:01.359
00:19:34.965 : en:00:19:34.965
00:25:41.498 : en:00:25:41.498
00:34:43.957 : en:00:34:43.957
00:39:51.931 : en:00:39:51.931
00:41:25.274 : en:00:41:25.274
00:47:09.076 : en:00:47:09.076
00:55:25.697 : en:00:55:25.697
01:03:46.239 : en:01:03:46.239
01:07:02.060 : en:01:07:02.060
01:12:45.486 : en:01:12:45.486
01:19:27.429 : en:01:19:27.429
01:24:26.937 : en:01:24:26.937




реклама партнёра


Вернуться к началу
 Профиль  
 
   Похожие торренты   Автор   Торрент   Размер 
В этой теме нет новых непрочитанных сообщений. Metallica: Сквозь невозможное / Metallica: Through the Never [мюзикл, музыка, приключения, 2013] BDRip 1080p [3D-Video]

Dracon

74 | 183

12.53 ГБ

В этой теме нет новых непрочитанных сообщений. Metallica: Сквозь невозможное / Metallica: Through the Never [мюзикл, музыка, приключения, 2013] BDRip 720p, Mvo+Sub

Dracon

296 | 29

7.34 ГБ

В этой теме нет новых непрочитанных сообщений. Metallica: Сквозь невозможное / Metallica: Through the Never [мюзикл, музыка, приключения, 2013] Blu-Ray [3D-video]

Dracon

1392 | 1938

34.28 ГБ

В этой теме нет новых непрочитанных сообщений. Metallica: Сквозь невозможное / Metallica: Through the Never [мюзикл, музыка, приключения, 2013] WЕВRip

koenig

279 | 12

1.11 ГБ

В этой теме нет новых непрочитанных сообщений. Metallica - Through The Never (2 CD) [2013, Thrash Metal, MP3]

PriZraK

17 | 5

231.56 МБ

В этой теме нет новых непрочитанных сообщений. VA - Metallica A Tribute To Kill 'Em All (MAG) [2013, Thrash Metal, MP3]

PriZraK

15 | 3

106.11 МБ

В этой теме нет новых непрочитанных сообщений. Metallica - Freeze 'Em All: Live in Antarctica [2013, Thrash Metal, MP3]

PriZraK

18 | 6

170.94 МБ


Начать новую тему Ответить на тему  [ 1 сообщение ] 




Для Мосгорсуда, Роскомнадзора и рекламодателей:: mosgorsud-torrent[собачка]yandex.ru