[ 1 сообщение ] 
Автор Сообщение

СообщениеДобавлено: 02 янв 2014, 11:27 

Не в сети
Аватара пользователя

Спасибо: 81 / 2
Сообщения: 141
Дата регистрации: 23 дек 2013, 11:18
Торренты: 130
Год выпуска: 2013
Жанр: Музыкальный, комедия, фантазия
Режиссер: Александр Игудин
В ролях: Анна Семенович, Ефим Шифрин, Алексей Воробьёв, Анастасия Стоцкая, Андрей Данилко, Юрий Гальцев, Юрий Стоянов, Михаил Боярский, Юрий Аскаров, Кристина Орбакайте, Филипп Киркоров

Описание: Иван-царевич мечтает жениться по любви на прекрасной Марье Искуснице. Но Царь намерен женить сына на заморской принцессе. Богатыри помогают Марье Искуснице бороться за сердце царевича Ивана. Вместе им предстоит выполнить задание царя и добыть перо Жар-птицы. А соперница, в свою очередь, прибегает к услугам Бабы-Яги.

Выпущено: Россия, "Медиапрофсоюз"
Продолжительность: 01:30:51
Язык: Русский

Качество: SATRip
Видео: XviD, 1957 Кбит/с, 720x400
Аудио rus: AC3, 2 ch, 192 Кбит/с

Полное имя : G:Tri.bogatyrja.2013.tahiy.avi
Формат : AVI
Формат/Информация : Audio Video Interleave
Размер файла : 1,37 Гбайт
Продолжительность : 1 ч. 30 м.
Общий поток : 2158 Кбит/сек
Название фильма : - = Rip by tahiy = -
Программа кодирования : VirtualDubMod 1.5.10.3 | http://www.virtualdub-fr.org || (build 2550/release)

Видео
Идентификатор : 0
Формат : MPEG-4 Visual
Профиль формата : Advanced Simple@L5
Параметр BVOP формата : 1
Параметр QPel формата : Нет
Параметр GMC формата : Без точки перехода
Параметр матрицы формата : Default (MPEG)
Идентификатор кодека : XVID
Идентификатор кодека/Подсказка : XviD
Продолжительность : 1 ч. 30 м.
Битрейт : 1957 Кбит/сек
Ширина : 720 пикселей
Высота : 400 пикселей
Соотношение сторон : 16:9
Частота кадров : 25,000 кадров/сек
Цветовое пространство : YUV
Субдискретизация насыщенности : 4:2:0
Битовая глубина : 8 бит
Тип развёртки : Прогрессивная
Метод сжатия : С потерями
Бит/(Пиксели*Кадры) : 0.272
Размер потока : 1,24 Гбайт (91%)
Библиотека кодирования : XviD 1.2.1 (UTC 2008-12-04)

Аудио
Идентификатор : 1
Формат : AC-3
Формат/Информация : Audio Coding 3
Расширение режима : CM (complete main)
Параметр Endianness формата : Big
Идентификатор кодека : 2000
Продолжительность : 1 ч. 30 м.
Вид битрейта : Постоянный
Битрейт : 192 Кбит/сек
Каналы : 2 канала
Расположение каналов : Front: L R
Частота : 48,0 КГц
Битовая глубина : 16 бит
Метод сжатия : С потерями
Размер потока : 125 Мбайт (9%)
Выравнивание : Разделение по промежуткам
Продолжительность промежутка : 40 мс. (1,00 видеокадр)
Время предзагрузки промежутка : 500 мс.




У вас нет необходимых прав для просмотра вложений в этом сообщении.


Вернуться к началу
 Профиль Отправить личное сообщение  
 
 [ 1 сообщение ] 
   Похожие темы   Автор   Ответы   Просмотры 
В этой теме нет новых непрочитанных сообщений. Карнавал по-нашему [1-2 из 2] [Комедия, музыкальный фильм, 2013] HDTVRip

iopuk60

245

В этой теме нет новых непрочитанных сообщений. Три богатыря: Ход конем (Константин Феоктистов) [мультфильм, комедия, приключения, фэнтези, 2014] CAMRip

Dracon

3010

В этой теме нет новых непрочитанных сообщений. Три богатыря: Ход конем (Константин Феоктистов) [мультфильм, комедия, приключения, фэнтези, 2014] HDRip [Лицензия]

Dracon

515

В этой теме нет новых непрочитанных сообщений. Три богатыря: Ход конем (Константин Феоктистов) [мультфильм, комедия, приключения, фэнтези, 2014] WEB-DLRip [iTunes]

Dracon

805

В этой теме нет новых непрочитанных сообщений. Три богатыря: Ход конем (Константин Феоктистов) [мультфильм, комедия, приключения, фэнтези, 2014] WEB-DLRip 1080p

Dracon

1313

В этой теме нет новых непрочитанных сообщений. Три богатыря: Ход конем (Константин Феоктистов) [мультфильм, комедия, приключения, фэнтези, 2014] WEB-DLRip 720p

Dracon

1275

В этой теме нет новых непрочитанных сообщений. Три богатыря: Ход конем (Константин Феоктистов) [мультфильм, комедия, приключения, фэнтези, 2014] HDRip [Лицензия]

Dracon

1087





Перейти:  

Для Мосгорсуда, Роскомнадзора и рекламодателей:: mosgorsud-torrent[собачка]yandex.ru