Торрент файл
скачать торрент магнет ссылка Добавлен: 09 янв 2012, 04:28
Размер: 4.24 ГБ
Сидеров: 45
Личеров: 16
Автор

СообщениеДобавлено: 09 янв 2012, 04:28 

Не в сети
Супермодератор
Аватара пользователя
Дата регистрации:
22 май 2010, 11:03
Возраст: 31
Спасибо: 7524 / 13
Сообщения: 49940
VA - Эх, разгуляй!


Формат: DVD5, DVD Video, MPEG2, AC3
Песня: Эх, разгуляй!
Жанр: Shanson
Продолжительность: 02:18:43
Год выпуска: 2011

Видео: 720х576 (PAL 16:9), 25 fps, MPEG-2, ~3987 kbps avg, 0.385 bit/pixel
Аудио: 48 kHz, AC-3, 2 ch, 192.00 kbps avg

Доп. информация: 12 ноября 2011 года в Спорткомплексе "Олимпийский" в очередной раз состоялся фестиваль шансона "Эх, Разгуляй 2011!". Русский шансон в настоящее время востребован не только в России, но и в других странах. Концерты в стиле шансон постоянно проходят с аншлагами, именно поэтому для концерта "Эх, Разгуляй!" был выбран стадион Спорткомплекса "Олимпийский", чтобы на фестивале шансона могли присутствовать все желающие.
01. Intro
02. С. Трофимов- Шансонье
03. С. Трофимов - Как мне сейчас хорошо
04. Д. Майданов – Время-наркотик
05. М. Шуфутинский – Не ешь с ножа
06. М. Шуфутинский- Огненная бабочка
07. Жека - Дорога в никуда
08. Л. Успенская – Сирень
09. Л. Успенская - Ловите вора
10. В. Курас – Лаве
11. И. Круг – Перелетная птица
12. М. Бублик - Скажи нет!
13. К. Голицына – Май
14. К. Голицына – До свидания
15. А. Маршал – Ливень
16. С. Джанни – В хрустальном замке
17. Г. Кричевский – Киевлянка
18. А. Полотно и Ф. Карманов – Не жалей
19. С. Любавин – За той волной
20. Л. Шепилова – Туман-туманище
21. Демидыч – Она по бережку идет
22. Лесоповал – Кума
23. Лесоповал – Штабеля
24. Д. Хмелев – Я верю
25. О. Газманов – Три вокзала
26. А. Ковалев – Забыл
27. К. Крымский – Милая
28. К. Сбигневская – Красавица
29. В. Токарев – Попурри
30. Л. Телешев – Осень
31. А. Никольский – Васильковая поляна
32. Е. Хмель – Хмель
33. В. Медяник – День-тень
34. С. Михайлов – Спаси меня
35. С. Михайлов – Только ты

Общее
Полное имя: C:\Tfile\eh_razgulay_[tfile.ru]\VIDEO_TS\VTS_01_1.VOB
Формат: MPEG-PS
Размер файла: 1024 Мбайт
Продолжительность: 33 м.
Общий поток: 4264 Кбит/сек

Видео
Идентификатор: 224 (0xE0)
Формат: MPEG Video
Версия формата: Version 2
Профиль формата: Main@Main
Параметр BVOP формата: Да
Параметр матрицы формата: По умолчанию
Параметры GOP формата: M=3, N=13
Продолжительность: 33 м.
Вид битрейта: Переменный
Битрейт: 3987 Кбит/сек
Номинальный битрейт: 9008 Кбит/сек
Ширина: 720 пикс.
Высота: 576 пикс.
Соотношение сторон: 16:9
Частота кадров: 25,000 кадр/сек
Стандарт вещания: PAL
Цветовое пространство: YUV
Подвыборка цветности: 4:2:0
Битовая глубина: 8 бит
Тип развёртки: Прогрессивная
Метод сжатия: С потерями
Бит/(Пиксели*Кадры): 0.385
Размер потока: 957 Мбайт (94%)

Аудио
Идентификатор: 128 (0x80)
Формат: AC-3
Формат/Информация: Audio Coding 3
Расширение режима: CM (complete main)
Продолжительность: 33 м.
Вид битрейта: Постоянный
Битрейт: 192 Кбит/сек
Канал(ы): 2 канала(ов)
Расположение каналов: Front: L R
Частота: 48,0 КГц
Битовая глубина: 16 бит
Метод сжатия: С потерями
Размер потока: 46,1 Мбайт (5%)














Релиз представлен группой
Поделиться:




реклама партнёра


Вернуться к началу
 Профиль Отправить личное сообщение  
 
   Похожие торренты   Автор   Торрент   Размер 
В этой теме нет новых непрочитанных сообщений. Сборник - Лучшие Исполнители Шансона [2015, Shanson, MP3]

Nickolas3435

160 | 10

633.81 МБ

В этой теме нет новых непрочитанных сообщений. Сборник - Застольный. Новогодняя веселуха [2014, Pop, Folk, Shanson, MP3]

Nickolas3435

433 | 25

1.53 ГБ

В этой теме нет новых непрочитанных сообщений. Сборник - Геометрия судьбы. Академия хитов шансона [2015, Shanson, MP3]

Nickolas3435

19 | 2

1.38 ГБ

В этой теме нет новых непрочитанных сообщений. Rockoschan's BAND (Рокошанс Бэнд) - В Тюрьме сидел кузнечик [2005, Rock, Shanson, MP3]

PriZraK

0 | 1

79.93 МБ

В этой теме нет новых непрочитанных сообщений. Тигровые лилии / The Tiger Lillies [Клипы] [3 шт] [Cabaret, Punk, Shanson, Blues, 2013] WEB-DL 1080p

Dracon

9 | 3

267.49 МБ

В этой теме нет новых непрочитанных сообщений. Освенцим / Auschwitz [драма, 2011] DVD5, Mvo+Sub [лицензия]

Dracon

57 | 7

3.77 ГБ

В этой теме нет новых непрочитанных сообщений. Уловка .44 / Catch .44 [триллер, драма, криминал, 2011] DVD5, Mvo+Sub

salma3

10 | 8

4.37 ГБ


Начать новую тему Ответить на тему  [ 1 сообщение ] 




Для Мосгорсуда, Роскомнадзора и рекламодателей:: mosgorsud-torrent[собачка]yandex.ru