Торрент файл
скачать торрент магнет ссылка Добавлен: 04 фев 2016, 22:22
Размер: 519.05 МБ
Сидеров: 5
Личеров: 1
Автор

СообщениеДобавлено: 04 фев 2016, 22:44 

Не в сети
Дата регистрации:
04 фев 2016, 20:30
Спасибо: 0 / 0
Сообщения: 3
ASaMSPb - Мы - Лирика - 001 - (Монологи в Стихах) - 2015 - Live - Flac-Cue - lossless

*
ASaMSPb - Мы - ЛиР - 001 - (Монологи в Стихах) - 2015 - Live - Flac-Cue
.

.
Страна: Россия
Год выпуска: 2015 г.
Исполнитель: ASaMSPb
Цикл/Серия: Монологи в Стихах
Жанр: Лирика
Издательство: S@M-07072015
Тип Издания: Нигде не купишь
Категория: Аудиоспектакль
Аудиокодек: Flac
Битрейт: Lossless
Музыкальное сопровождение: Присутствует постоянно
Время звучания: 01:19:29
.
ASaMSPb - Мы - Лирика - 001 - (Монологи в Стихах) - 2015 - Live - Flac-Cue
.
Треклист:
.
01. ASaMSPb - Мы - (Secret Garden) - (П.Коэльо) - 20.02.2012 - live (3:46)
02. ASaMSPb - А у Тебя Бывает - (J.Forks) - (NA) - 07.03.2015 - live (3:58)
03. ASaMSPb - Одиночество - (R.Clauderman) - (NA) - 09.07.2014 - live (3:14)
04. ASaMSPb - Все Ушли в Осень - (F.Goya) - (Т.Залужная) - 28 .02.2012 - live (2:49)
05. ASaMSPb - Осень Плачет - (R.Clauderman) - (NA) - 17.10.2014 - live (2:52)
06. ASaMSPb - Вот Возьму и Приснюсь - (Blonker) - (NA) - 08.12.2012 - live (4:13)
07. ASaMSPb - Тихо Падал Рассвет - (Ocarina) - (NA) - 10.05.2014 - live (4:21)
08. ASaMSPb - Хватит к Чёрту - (F.Duval) - (А.Фирсова) - 09.12.2012 - live (3:07)
09. ASaMSPb - Bad Boy - (Y.Tiersen) - (NA) - 16.10.2013 - live (2:42)
10. ASaMSPb - Достаньте Чувства Из Архива - (Ocarina) - (С.Левин) - 12.05.2014 - live (4:32)
11. ASaMSPb - Косит Смерть Косой - (Dj Student) - (А.Стефанов) - 21.03.2015 - live (4:53)
12. ASaMSPb - Ёжик и Медвежонок - (K.Matsui) - (С.Козлов) - 23.10.2013 - live (3:46)
13. ASaMSPb - Погибающему От Спида - (Y.Tiersen) - (Л.Чепеленко) - 26.12.2014 - live (1:32)
14. ASaMSPb - Все Так-Же - (F.Poursel) - (Вера) - 26.12.2014 - live (2:34)
15. ASaMSPb - Легко Надеть Чужую Маску - (Squirrel Nut Zippers) - (NA) - 10.11.2013 - live (2:46)
16. ASaMSPb - Одиночество Это - (R.Clauderman) - (NA) - 13.10.2014 - live (3:11)
17. ASaMSPb - Осень Плачет - (R.Clauderman) - (NA) - 17.10.2014 - live (2:49)
18. ASaMSPb - Слишком Много Боли - (R.Lefevre) - (NA) - 13.11.2014 - live (3:12)
19. ASaMSPb - Жизнь в 100 Словах - (R.Lefevre) - (NA) - 13.11.2014 - live (2:48)
20. ASaMSPb - После Смерти Твоей - (R.Lefevre) - (NA) - 14.11.2014 - live (2:45)
21. В.Е.Щедрин - Прощальная - (Secret Garden) - (В.Е.Щедрин) - 27.01.2012 - live (3:32)
22. Бонус - ASaMSPb - Посвящение В.Е.Щедрину - (1964-2014) - 07.07.2015 (10:08)

.
-

.
AUDIOCHECKER v2.0 beta (build 457) - by Dester
~~~~~~~~~~~~~~~~~~~~~~~~~~~~~~~~~~
Начато: четверг, 27. 08. 2015. - 16:36.06
Найдено файлов: 1
1 -===- C:\! - ToP\ASaMSPb - Мы - ЛиР - 001 - 2015 - Live - Flac-Cue\ASaMSPb - Мы - ЛиР - 001 - 2015 - Live - Flac-Cue.flac
Извлечение успешно выполнено
Заключение: этот трек - CDDA с вероятностью 100%
Временный файл удалён.
Завершено: четверг, 27. 08. 2015. - 16:37.18 (Время операции: 0:01.11)

.
Формат: Flac
Тип рипа: image+.cue
Bitrate: Lossless
Количество каналов: 2.0
.
-

.
-

.
Доп. информация: Стихи прочитанные под музыку - Живое исполнение ... - 2012-2015 гг ...
Источник (релизер): Собственный рип с CD-R-Disc - c помощью Easy CD-DA Extractor
Авторы Стихов и Текстов: П.Коэльо, Т.Залужная, А.Фирсова, С.Левин, А.Стефанов, С.Козлов, Л.Чепеленко, В.Е.Щедрин, NA ...
Музыка в Исполнении Оркестров и Dj: Secret Garden, J.Forks, R.Clauderman, F.Goya, Blonker, Ocarina, F.Duval, Y.Tiersen, Dj Student - http://promodj.com/XxxD, K.Matsui, F.Poursel, Squirrel Nut Zippers, R.Lefevre и Др ...
Исполнитель: Стихи и Тексты Читает - ASaMSPb - (Санкт-Петербург - 2012-2015) - Live ...
.
PERFORMER "ASaMSPb"
TITLE "Мы - ЛиР - 001 - 2015 - Live - Flac-Cue"
FILE "ASaMSPb - Мы - ЛиР - 001 - 2015 - Live - Flac-Cue.flac" WAVE
TRACK 01 AUDIO
TITLE "Мы - (Secret Garden) - (П.Коэльо) - 20.02.2012 - live - flac"
PERFORMER "ASaMSPb"
INDEX 01 00:00:00
TRACK 02 AUDIO
TITLE "А у Тебя Бывает - (J.Forks) - (NA) - 07.03.2015 - live - flac"
PERFORMER "ASaMSPb"
INDEX 01 03:45:41
TRACK 03 AUDIO
TITLE "Одиночество - (R.Clauderman) - (NA) - 09.07.2014 - live - flac"
PERFORMER "ASaMSPb"
INDEX 01 07:43:41
TRACK 04 AUDIO
TITLE "Все Ушли в Осень - (F.Goya) - (Т.Залужная) - 28 .02.2012 - live - flac"
PERFORMER "ASaMSPb"
INDEX 01 10:57:41
TRACK 05 AUDIO
TITLE "Осень Плачет - (R.Clauderman) - (NA) - 17.10.2014 - live - flac"
PERFORMER "ASaMSPb"
INDEX 01 13:47:02
TRACK 06 AUDIO
TITLE "Вот Возьму и Приснюсь - (Blonker) - (NA) - 08.12.2012 - live - flac"
PERFORMER "ASaMSPb"
INDEX 01 16:39:02
TRACK 07 AUDIO
TITLE "Тихо Падал Рассвет - (Ocarina) - (NA) - 10.05.2014 - live - flac"
PERFORMER "ASaMSPb"
INDEX 01 20:51:47
TRACK 08 AUDIO
TITLE "Хватит к Чёрту - (F.Duval) - (А.Фирсова) - 09.12.2012 - live - flac"
PERFORMER "ASaMSPb"
INDEX 01 25:12:47
TRACK 09 AUDIO
TITLE "Bad Boy - (Y.Tiersen) - (NA) - 16.10.2013 - live - flac"
PERFORMER "ASaMSPb"
INDEX 01 28:19:10
TRACK 10 AUDIO
TITLE "Достаньте Чувства Из Архива - (Ocarina) - (С.Левин) - 12.05.2014 - live - flac"
PERFORMER "ASaMSPb"
INDEX 01 31:01:10
TRACK 11 AUDIO
TITLE "Косит Смерть Косой - (Dj Student) - (А.Стефанов) - 21.03.2015 - live - flac"
PERFORMER "ASaMSPb"
INDEX 01 35:33:10
TRACK 12 AUDIO
TITLE "Ёжик и Медвежонок - (K.Matsui) - (С.Козлов) - 23.10.2013 - live - flac"
PERFORMER "ASaMSPb"
INDEX 01 40:26:10
TRACK 13 AUDIO
TITLE "Погибающему От Спида - (Y.Tiersen) - (Л.Чепеленко) - 26.12.2014 - live - flac"
PERFORMER "ASaMSPb"
INDEX 01 44:12:10
TRACK 14 AUDIO
TITLE "Все Так-Же - (F.Poursel) - (Вера) - 26.12.2014 - live - flac"
PERFORMER "ASaMSPb"
INDEX 01 45:44:12
TRACK 15 AUDIO
TITLE "Легко Надеть Чужую Маску - (Squirrel Nut Zippers) - (NA) - 10.11.2013 - live - flac"
PERFORMER "ASaMSPb"
INDEX 01 48:18:14
TRACK 16 AUDIO
TITLE "Одиночество Это - (R.Clauderman) - (NA) - 13.10.2014 - live - flac"
PERFORMER "ASaMSPb"
INDEX 01 51:04:14
TRACK 17 AUDIO
TITLE "Осень Плачет - (R.Clauderman) - (NA) - 17.10.2014 - live - flac"
PERFORMER "ASaMSPb"
INDEX 01 54:15:14
TRACK 18 AUDIO
TITLE "Слишком Много Боли - (R.Lefevre) - (NA) - 13.11.2014 - live - flac"
PERFORMER "ASaMSPb"
INDEX 01 57:04:14
TRACK 19 AUDIO
TITLE "Жизнь в 100 Словах - (R.Lefevre) - (NA) - 13.11.2014 - live - flac"
PERFORMER "ASaMSPb"
INDEX 01 60:16:14
TRACK 20 AUDIO
TITLE "После Смерти Твоей - (R.Lefevre) - (NA) - 14.11.2014 - live - flac"
PERFORMER "ASaMSPb"
INDEX 01 63:04:14
TRACK 21 AUDIO
TITLE "Прощальная - (Secret Garden) - (В.Е.Щедрин) - 27.01.2012 - live - flac"
PERFORMER "В.Е.Щедрин"
INDEX 01 65:49:13
TRACK 22 AUDIO
TITLE "Посвящение В.Е.Щедрину - (1964-2014) - 07.07.2015 - flac"
PERFORMER "Бонус - ASaMSPb"
INDEX 01 69:21:13

.
*
CD - ASaMSPb - Свидетель Путина - Спасибо Путину - Pol-2013-2015 - Politics-2-Cd-2016 - Flac-lossless - viewtopic.php?f=40&t=202284&p=218286#p218286
*
CD - В.В.Царев - За Дымкой Питерской Тиши - VVTcSPb-2014 - Flac-Cue - lossless - viewtopic.php?f=40&t=202288&p=218292#p218292
*

*
СНЯТО с ОРИГИНАЛЬНОГО МАСТЕР CD
*




реклама партнёра


Вернуться к началу
 Профиль Отправить личное сообщение  
 
   Похожие торренты   Автор   Торрент   Размер 
В этой теме нет новых непрочитанных сообщений. CD - ASaMSPb - Свидетель Путина - Спасибо Путину - Pol-2013-2015 - Politics-2-Cd-2016 - Flac-lossless

antoroman

11 | 1

1.02 ГБ

В этой теме нет новых непрочитанных сообщений. DJ Vlad Kardash - Relax Mix [01-08] (2013-2014) FLAC / Lossless

Dracon

28 | 7

4.34 ГБ

В этой теме нет новых непрочитанных сообщений. CD - В.В.Царев - За Дымкой Питерской Тиши - VVTcSPb-2014 - Flac-Cue - lossless

antoroman

4 | 1

534.55 МБ

В этой теме нет новых непрочитанных сообщений. (Авторская песня) Тимур Шаов - Перспективы - 2013, FLAC (image+.cue), lossless

Aleksandr.ru

0 | 3

464.24 МБ

В этой теме нет новых непрочитанных сообщений. The Prodigy - The Day Is My Enemy [2015, Electronic, BigBeat, Breakbeat, FLAC]

Nickolas3435

68 | 4

420.37 МБ

В этой теме нет новых непрочитанных сообщений. Palm Desert - Дискография [Sludge/Stoner Rock 2009-2015] FLAC

Redscarf

0 | 2

1.58 ГБ

В этой теме нет новых непрочитанных сообщений. Kenny G - Brazilian Nights [2015, Smooth-jazz, sax, easy-listening, FLAC | 24bit]

Nickolas3435

18 | 4

1.62 ГБ


СообщениеДобавлено: 23 сен 2016, 22:57 

Не в сети
Дата регистрации:
23 сен 2016, 22:54
Спасибо: 0 / 0
Сообщения: 1
b22 10 2017 34 19 24
i d r n s u w k g f o t t q r
f20 9 2016 26 20 59
s v c x n b h u n x q g d j v
r21 10 2017 17 17 41
j d i f m a g c u e q y f g d
l20 9 2016 14 12 29
a p v d b k p i g r v p p b s
y22 9 2017 42 11 0
e a m d r v p p f n e g e o i
m22 9 2017 30 16 41
b d e w g s s u t s z a o o v
c22 9 2017 52 18 22
n d o l h o n e q a z i b g p
o21 10 2017 16 4 11
http://2bat.ru


Вернуться к началу
 Профиль Отправить личное сообщение  
 
Начать новую тему Ответить на тему  [ Сообщений: 2 ] 




Для Мосгорсуда, Роскомнадзора и рекламодателей:: mosgorsud-torrent[собачка]yandex.ru