Торрент файл
скачать торрент магнет ссылка Добавлен: 22 июн 2017, 02:41
Размер: 1.04 ГБ
Сидеров: 0
Личеров: 0
Автор

СообщениеДобавлено: 22 июн 2017, 02:41 

Не в сети
Супермодератор
Аватара пользователя
Дата регистрации:
15 фев 2012, 16:44
Возраст: 28
Спасибо: 6917 / 2147
Сообщения: 52680

Год производства: 2017
Жанр: All Sex,Glamour Girls , Teen
В ролях: Kalisy Morning
Продолжительность: 18mn 47s

Тип видео : HD
Формат видео : MP4
Video
ID : 1
Format : AVC
Format/Info : Advanced Video Codec
Format profile : Baseline@L4
Format settings, CABAC : No
Format settings, ReFrames : 3 frames
Codec ID : avc1
Codec ID/Info : Advanced Video Coding
Duration : 18mn 47s
Bit rate : 8 000 Kbps
Width : 1 920 pixels
Height : 1 080 pixels
Display aspect ratio : 16:9
Frame rate mode : Constant
Frame rate : 25.000 fps
Color space : YUV
Chroma subsampling : 4:2:0
Bit depth : 8 bits
Scan type : Progressive
Bits/(Pixel*Frame) : 0.154
Stream size : 1.02 GiB (99%)
Writing library : x264 core 148
Encoding settings : cabac=0 / ref=3 / deblock=1:0:0 / analyse=0x1:0x111 / me=hex / subme=7 / psy=1 / psy_rd=1.00:0.00 / mixed_ref=1 / me_range=16 / chroma_me=1 / trellis=1 / 8x8dct=0 / cqm=0 / deadzone=21,11 / fast_pskip=1 / chroma_qp_offset=-2 / threads=8 / lookahead_threads=1 / sliced_threads=0 / nr=0 / decimate=1 / interlaced=0 / bluray_compat=0 / constrained_intra=0 / bframes=0 / weightp=0 / keyint=250 / keyint_min=25 / scenecut=40 / intra_refresh=0 / rc_lookahead=40 / rc=abr / mbtree=1 / bitrate=8000 / ratetol=1.0 / qcomp=0.60 / qpmin=0 / qpmax=69 / qpstep=4 / ip_ratio=1.40 / aq=1:1.00
Encoded date : UTC 1904-01-01 00:00:00
Tagged date : UTC 1904-01-01 00:00:00

Audio
ID : 2
Format : AAC
Format/Info : Advanced Audio Codec
Format profile : LC
Codec ID : 40
Duration : 18mn 47s
Duration_LastFrame : -20ms
Bit rate mode : Constant
Bit rate : 96.0 Kbps
Channel(s) : 2 channels
Channel positions : Front: L R
Sampling rate : 44.1 KHz
Frame rate : 43.066 fps (1024 spf)
Compression mode : Lossy
Stream size : 12.9 MiB (1%)
Default : Yes
Alternate group : 1
Encoded date : UTC 1904-01-01 00:00:00
Tagged date : UTC 1904-01-01 00:00:00

Скриншоты:


_________________
Проголосуй за трекер Открытый торрент трекер - RUS-MEDIA.ORG

Проголосуй Открытый торрент трекер - RUS-MEDIA.ORG



реклама партнёра


Вернуться к началу
 Профиль Отправить личное сообщение  
 
   Похожие торренты   Автор   Торрент   Размер 
В этой теме нет новых непрочитанных сообщений. [AssholeFever.com / 21Sextury.com] Tiffany Doll (Stretch My Tight Ass / 19.08.17.) [2017 г., Gonzo, Anal, 1080p]

salma3

27 | 9

1.12 ГБ

В этой теме нет новых непрочитанных сообщений. TheLifeErotic 17 03 10 Kalisy Good For The Soul 2 XXX 1080p MP4-KTR

salma3

0 | 0

622.09 МБ

В этой теме нет новых непрочитанных сообщений. MetArtX 17 03 12 Kalisy Spring In My Mind XXX 1080p MP4-KTR

salma3

0 | 0

354.65 МБ

В этой теме нет новых непрочитанных сообщений. [UltraFilms.com] Kira and Anna Swix (A Very Good Morning / 2017-08-30) [2017 г., Teen, All Girl, Lesbian, 1080p]

salma3

18 | 6

662.97 МБ

В этой теме нет новых непрочитанных сообщений. Kristall Rush - Morning sex procedures (2017) HD 1080p

salma3

0 | 0

1.95 ГБ

В этой теме нет новых непрочитанных сообщений. [SexArt.com / MetArt.com] Mary Kalisy - Behind The Scenes (20.08.2017) [IR, All Sex, 720p]

salma3

17 | 6

733.38 МБ

В этой теме нет новых непрочитанных сообщений. [BabyGotBoobs.com / Brazzers.com] Melissa Moore (Moaning In The Morning Light / 15.07.2017) [2017 г., Blowjob (POV), Brunette, Facial (POV), Handjob (POV), Natural Tits, Work Fantasies, 1080p]

salma3

18 | 6

2.87 ГБ


Начать новую тему Ответить на тему  [ 1 сообщение ] 




Для Мосгорсуда, Роскомнадзора и рекламодателей:: mosgorsud-torrent[собачка]yandex.ru
cron