Торрент файл
скачать торрент магнет ссылка Добавлен: 26 мар 2017, 16:17
Размер: 387.09 МБ
Сидеров: 5
Личеров: 0
Автор

СообщениеДобавлено: 26 мар 2017, 16:17 

В сети
Супермодератор
Аватара пользователя
Дата регистрации:
15 фев 2012, 16:44
Возраст: 28
Спасибо: 6667 / 2146
Сообщения: 46091
Год производства: 2016
Жанр: Solo

Тип видео : HD
Формат видео : MP4
Video
ID : 1
Format : AVC
Format/Info : Advanced Video Codec
Format profile : Baseline@L4
Format settings, CABAC : No
Format settings, ReFrames : 3 frames
Codec ID : avc1
Codec ID/Info : Advanced Video Coding
Duration : 8mn 48s
Bit rate : 6 007 Kbps
Width : 1 920 pixels
Height : 1 080 pixels
Display aspect ratio : 16:9
Frame rate mode : Constant
Frame rate : 25.000 fps
Color space : YUV
Chroma subsampling : 4:2:0
Bit depth : 8 bits
Scan type : Progressive
Bits/(Pixel*Frame) : 0.116
Stream size : 379 MiB (98%)
Writing library : Zencoder Video Encoding System
Encoded date : UTC 1904-01-01 00:00:00
Tagged date : UTC 1904-01-01 00:00:00

Audio
ID : 2
Format : AAC
Format/Info : Advanced Audio Codec
Format profile : LC
Codec ID : 40
Duration : 8mn 48s
Bit rate mode : Constant
Bit rate : 128 Kbps
Channel(s) : 2 channels
Channel positions : Front: L R
Sampling rate : 44.1 KHz
Frame rate : 43.066 fps (1024 spf)
Compression mode : Lossy
Stream size : 8.08 MiB (2%)
Default : Yes
Alternate group : 1
Encoded date : UTC 1904-01-01 00:00:00

Скриншоты:


_________________
Проголосуй за трекер Открытый торрент трекер - RUS-MEDIA.ORG

Проголосуй Открытый торрент трекер - RUS-MEDIA.ORG



реклама партнёра


Вернуться к началу
 Профиль Отправить личное сообщение  
 
   Похожие торренты   Автор   Торрент   Размер 
В этой теме нет новых непрочитанных сообщений. [TeenFidelity.com] Kimber Woods (2RUFF4HER) [2017 г., Anal, Creampie, Deep Throat, All Sex, 1080p]

salma3

2 | 1

2.92 ГБ

В этой теме нет новых непрочитанных сообщений. Kimber Woods And Uma Jolie Just Try To Keep It Down (2016) 1080p

salma3

0 | 0

548.71 МБ

В этой теме нет новых непрочитанных сообщений. [StepMomLessons.com / Babes.com] Loren Minardi, Monique Woods (Meat the Parents / 05.12.2017) [Blonde, Brunette, Threesome, FFM, Masturbation, Deep Throat, Pussy Licking, Blowjob, Wife, Stepmom, Stepdaughter, Bald Pussy, 1080p, HDRip]

salma3

20 | 7

606.71 МБ

В этой теме нет новых непрочитанных сообщений. [TeenFidelity.com] Kimber Woods - 2RUFF4HER (14.09.2017) [Anal, Creampie, Deep Throat, All Sex]

salma3

38 | 13

587.54 МБ

В этой теме нет новых непрочитанных сообщений. [Vixen.com] Naomi Woods (Something To Prove / 24.04.2017) [Deep throat, Blonde, Spooning, Riding, Reverse cowgirl, Cow girl, Facial, Blowjob]

salma3

38 | 13

351.71 МБ

В этой теме нет новых непрочитанных сообщений. [TeenFidelity.com] Kimber Woods (2RUFF4HER / 2017-09-16) [2017 г., Anal, Creampie, Deep Throat, All Sex, 720p]

salma3

26 | 9

1.68 ГБ

В этой теме нет новых непрочитанных сообщений. Mila Hendrix Deep Strokes (2016) 1080p

salma3

0 | 0

2.3 ГБ


Начать новую тему Ответить на тему  [ 1 сообщение ] 




Для Мосгорсуда, Роскомнадзора и рекламодателей:: mosgorsud-torrent[собачка]yandex.ru