Торрент файл
скачать торрент магнет ссылка Добавлен: 24 мар 2017, 14:06
Размер: 2.09 ГБ
Сидеров: 0
Личеров: 0
Автор

СообщениеДобавлено: 24 мар 2017, 14:06 

Не в сети
Супермодератор
Аватара пользователя
Дата регистрации:
15 фев 2012, 16:44
Возраст: 28
Спасибо: 6640 / 2146
Сообщения: 45613

Год производства: 2016
Жанр: All Sex
Продолжительность: 30mn 37s
В ролях:
Date........: 2016-12-05
URL.........: http://www.milfhunter.com/
Тип видео : HD
Формат видео : MP4

Video
ID : 1
Format : AVC
Format/Info : Advanced Video Codec
Format profile : High@L4
Format settings, CABAC : No
Format settings, ReFrames : 3 frames
Codec ID : avc1
Codec ID/Info : Advanced Video Coding
Duration : 30mn 37s
Bit rate mode : Variable
Bit rate : 9 578 Kbps
Maximum bit rate : 10.0 Mbps
Width : 1 920 pixels
Height : 1 080 pixels
Display aspect ratio : 16:9
Frame rate mode : Constant
Frame rate : 23.976 (23976/1000) fps
Standard : Component
Color space : YUV
Chroma subsampling : 4:2:0
Bit depth : 8 bits
Scan type : Progressive
Bits/(Pixel*Frame) : 0.193
Stream size : 2.05 GiB (98%)
Encoded date : UTC 1904-01-01 00:00:00
Tagged date : UTC 1904-01-01 00:00:00
Color range : Limited

Audio
ID : 2
Format : AAC
Format/Info : Advanced Audio Codec
Format profile : LC
Codec ID : 40
Duration : 30mn 37s
Bit rate mode : Constant
Bit rate : 192 Kbps
Channel(s) : 2 channels
Channel positions : Front: L R
Sampling rate : 48.0 KHz
Frame rate : 46.875 fps (1024 spf)
Compression mode : Lossy
Stream size : 42.1 MiB (2%)
Default : Yes
Alternate group : 1
Encoded date : UTC 1904-01-01 00:00:00
Tagged date : UTC 1904-01-01 00:00:00


Скриншоты:


_________________
Проголосуй за трекер Открытый торрент трекер - RUS-MEDIA.ORG

Проголосуй Открытый торрент трекер - RUS-MEDIA.ORG



реклама партнёра


Вернуться к началу
 Профиль Отправить личное сообщение  
 
   Похожие торренты   Автор   Торрент   Размер 
В этой теме нет новых непрочитанных сообщений. Remy LaCroix - Remy 2, Scene 3 [2013 г., Gonzo, IR, Gangbang, Anal, DP, Facial, DVDRip]

salma3

8 | 3

410.22 МБ

В этой теме нет новых непрочитанных сообщений. Mia Lelani And Ivy Rose Pink Little Mia (2016) 1080p

salma3

0 | 0

2.46 ГБ

В этой теме нет новых непрочитанных сообщений. Kelly Klass Pink Butterfly (2016) 1080p

salma3

0 | 1

1015.3 МБ

В этой теме нет новых непрочитанных сообщений. Remy LaCroix / Stockholm Syndrome (2015) HD 1080p

Dile-1

2 | 3

653.54 МБ

В этой теме нет новых непрочитанных сообщений. In Your Face Again (Chi Chi LaRue, Pleasure Productions) [1993 г., All Sex, DVDRip]

salma3

4 | 1

709.49 МБ

В этой теме нет новых непрочитанных сообщений. [BDWC] Black Owned 8 / Черная Собственность 8 (Jules Jordan, Jules Jordan Video) [2016 г., Gonzo, IR, Gangbang, Anal, DP, 558p, WEB-DL] (Split Scenes) (Keisha Grey, Ryan Conner, Valentina Nappi, Remy LaCroix) RD: 15.02.2016.

salma3

5 | 2

1.89 ГБ

В этой теме нет новых непрочитанных сообщений. PennyPaxLive 16 12 23 Pink Bodystocking And Dildo JOI XXX 1080p MP4-KTR

salma3

0 | 0

1.18 ГБ


Начать новую тему Ответить на тему  [ 1 сообщение ] 




Для Мосгорсуда, Роскомнадзора и рекламодателей:: mosgorsud-torrent[собачка]yandex.ru