Торрент файл
скачать торрент магнет ссылка Добавлен: 24 мар 2017, 14:05
Размер: 2.46 ГБ
Сидеров: 0
Личеров: 0
Автор

СообщениеДобавлено: 24 мар 2017, 14:05 

Не в сети
Супермодератор
Аватара пользователя
Дата регистрации:
15 фев 2012, 16:44
Возраст: 28
Спасибо: 7199 / 2147
Сообщения: 64757
Год производства: 2016
Жанр: Teen , Lesbian , Asian , Milf , Big Tits
Продолжительность: 36mn 0s
В ролях: Mia Lelani And Ivy Rose

Тип видео : HD
Формат видео : MP4
Video
ID : 1
Format : AVC
Format/Info : Advanced Video Codec
Format profile : High@L4
Format settings, CABAC : No
Format settings, ReFrames : 3 frames
Codec ID : avc1
Codec ID/Info : Advanced Video Coding
Duration : 36mn 0s
Bit rate mode : Variable
Bit rate : 9 593 Kbps
Maximum bit rate : 10.0 Mbps
Width : 1 920 pixels
Height : 1 080 pixels
Display aspect ratio : 16:9
Frame rate mode : Constant
Frame rate : 23.976 (23976/1000) fps
Standard : Component
Color space : YUV
Chroma subsampling : 4:2:0
Bit depth : 8 bits
Scan type : Progressive
Bits/(Pixel*Frame) : 0.193
Stream size : 2.41 GiB (98%)
Encoded date : UTC 1904-01-01 00:00:00
Tagged date : UTC 1904-01-01 00:00:00
Color range : Limited

Audio
ID : 2
Format : AAC
Format/Info : Advanced Audio Codec
Format profile : LC
Codec ID : 40
Duration : 36mn 0s
Bit rate mode : Constant
Bit rate : 192 Kbps
Channel(s) : 2 channels
Channel positions : Front: L R
Sampling rate : 48.0 KHz
Frame rate : 46.875 fps (1024 spf)
Compression mode : Lossy
Stream size : 49.5 MiB (2%)
Default : Yes
Alternate group : 1
Encoded date : UTC 1904-01-01 00:00:00
Tagged date : UTC 1904-01-01 00:00:00


Скриншоты:


_________________
Проголосуй за трекер Открытый торрент трекер - RUS-MEDIA.ORG

Проголосуй Открытый торрент трекер - RUS-MEDIA.ORG


Вернуться к началу
 Профиль Отправить личное сообщение  
 
   Похожие торренты   Автор   Торрент   Размер 
В этой теме нет новых непрочитанных сообщений. Kelly Klass Pink Butterfly (2016) 1080p

salma3

0 | 1

1015.3 МБ

В этой теме нет новых непрочитанных сообщений. Remy Larue Tickled Pink (2016) 1080p

salma3

0 | 0

2.09 ГБ

В этой теме нет новых непрочитанных сообщений. Rayna Rose (2016) 1080p

salma3

0 | 0

1.27 ГБ

В этой теме нет новых непрочитанных сообщений. Allure Rose Masturbation (2016) 1080p

salma3

0 | 0

645.5 МБ

В этой теме нет новых непрочитанных сообщений. Rayna Rose Lucky You (2016) 1080p

salma3

0 | 0

2.78 ГБ

В этой теме нет новых непрочитанных сообщений. [castingcouch-x.com] Ana Rose - Ana Rose [May 04, 2018 г., Gonzo, All sex, 1080p]

salma3

0 | 0

1.51 ГБ

В этой теме нет новых непрочитанных сообщений. Сашкино розовое очечо / Sasha Roseм (Sasha Rose's Pink Butthole) (2017) SiteRip

salma3

41 | 10

366.47 МБ


Начать новую тему Ответить на тему  [ 1 сообщение ] 




Для Мосгорсуда, Роскомнадзора и рекламодателей:: mosgorsud-torrent[собачка]yandex.ru
cron