Торрент файл
скачать торрент магнет ссылка Добавлен: 24 мар 2017, 14:05
Размер: 452.76 МБ
Сидеров: 5
Личеров: 3
Автор

СообщениеДобавлено: 24 мар 2017, 14:05 

Не в сети
Супермодератор
Аватара пользователя
Дата регистрации:
15 фев 2012, 16:44
Возраст: 28
Спасибо: 6584 / 2144
Сообщения: 44064

Год производства: 2016
Жанр: Solo
Продолжительность: 12mn 28s
В ролях: Josephine Jones

Тип видео : HD
Формат видео : MP4
Video
ID : 1
Format : AVC
Format/Info : Advanced Video Codec
Format profile : Main@L3.1
Format settings, CABAC : No
Format settings, ReFrames : 2 frames
Codec ID : avc1
Codec ID/Info : Advanced Video Coding
Duration : 12mn 28s
Bit rate : 4 997 Kbps
Width : 1 280 pixels
Height : 720 pixels
Display aspect ratio : 16:9
Frame rate mode : Constant
Frame rate : 23.976 (23976/1000) fps
Standard : NTSC
Color space : YUV
Chroma subsampling : 4:2:0
Bit depth : 8 bits
Scan type : Progressive
Bits/(Pixel*Frame) : 0.226
Stream size : 446 MiB (98%)
Encoded date : UTC 1904-01-01 00:00:00
Tagged date : UTC 1904-01-01 00:00:00
Color range : Limited

Audio
ID : 2
Format : AAC
Format/Info : Advanced Audio Codec
Format profile : LC
Codec ID : 40
Duration : 12mn 28s
Bit rate mode : Constant
Bit rate : 72.0 Kbps
Channel(s) : 2 channels
Channel positions : Front: L R
Sampling rate : 44.1 KHz
Frame rate : 43.066 fps (1024 spf)
Compression mode : Lossy
Stream size : 6.42 MiB (1%)
Default : Yes
Alternate group : 1
Encoded date : UTC 1904-01-01 00:00:00
Tagged date : UTC 1904-01-01 00:00:00

Скриншоты:


_________________
Проголосуй за трекер Открытый торрент трекер - RUS-MEDIA.ORG

Проголосуй Открытый торрент трекер - RUS-MEDIA.ORG



реклама партнёра


Вернуться к началу
 Профиль Отправить личное сообщение  
 
   Похожие торренты   Автор   Торрент   Размер 
В этой теме нет новых непрочитанных сообщений. [KarupsOW.com] Kitty Cream - Solo 5 (2016-07-28) [2016 г., Solo, MILF, 720p]

salma3

7 | 2

450.95 МБ

В этой теме нет новых непрочитанных сообщений. Случайно беременна / Joséphine s'arrondit [Комедия, 2016] BDRip 720p, Dub [iTunes]

salma3

34 | 7

4.62 ГБ

В этой теме нет новых непрочитанных сообщений. Случайно беременна / Josephine s'arrondit [комедия, 2016] HDRip, Dub [iTunes]

salma3

2415 | 133

1.45 ГБ

В этой теме нет новых непрочитанных сообщений. Случайно беременна / Josephine s'arrondit [комедия, 2016] HDRip, Dub [iTunes]

salma3

3372 | 147

746.65 МБ

В этой теме нет новых непрочитанных сообщений. Случайно беременна / Joséphine s'arrondit [комедия, 2016] ВDRip 1080р, Dub [iTunes]

salma3

37 | 6

6.81 ГБ

В этой теме нет новых непрочитанных сообщений. Ashlee Mae Solo 2 (2016) 720p

salma3

1 | 3

442.15 МБ

В этой теме нет новых непрочитанных сообщений. Rebel Lynn Solo 1 (2016) 720p

salma3

0 | 1

505.92 МБ


Начать новую тему Ответить на тему  [ 1 сообщение ] 




Для Мосгорсуда, Роскомнадзора и рекламодателей:: mosgorsud-torrent[собачка]yandex.ru