Торрент файл
скачать торрент магнет ссылка Добавлен: 24 мар 2017, 14:03
Размер: 1.08 ГБ
Сидеров: 0
Личеров: 0
Автор

СообщениеДобавлено: 24 мар 2017, 14:03 

Не в сети
Супермодератор
Аватара пользователя
Дата регистрации:
15 фев 2012, 16:44
Возраст: 29
Спасибо: 7328 / 2147
Сообщения: 73609
Год производства: 2016
Жанр: All Sex,Teen , Anal
Продолжительность: 24mn 32s
URL.........: http://teensanalyzed.com/

File Name...........: gush.teensanalyzed.15.05.27.hungry.for.anal.pleasure.wmv
Runtime.............: 24mn 32s
File Size...........: 1.08 GiB
Format..............: Windows Media
Video Bitrate.......: 5 831 Kbps
Video Codec.........: VC-1 Main
Aspect Ratio........: 16:9
Resolution..........: 1920x1080
Frame Rate..........: 25.000 fps
Audio Codec.........: WMA2 @ 192 Kbps
Channels............: 2 CH
Тип видео : HD
Формат видео : WMV
Video
ID : 1
Format : VC-1
Format profile : Main
Codec ID : WMV3
Codec ID/Info : Windows Media Video 9
Codec ID/Hint : WMV3
Description of the codec : wmv3
Duration : 24mn 32s
Bit rate : 5 831 Kbps
Width : 1 920 pixels
Height : 1 080 pixels
Display aspect ratio : 16:9
Frame rate : 25.000 fps
Color space : YUV
Chroma subsampling : 4:2:0
Bit depth : 8 bits
Scan type : Progressive
Compression mode : Lossy
Bits/(Pixel*Frame) : 0.112
Stream size : 1 023 MiB (93%)

Audio
ID : 2
Format : WMA
Format version : Version 2
Codec ID : 161
Codec ID/Info : Windows Media Audio
Description of the codec : Windows Media Audio V8
Duration : 24mn 32s
Bit rate : 192 Kbps
Channel(s) : 2 channels
Sampling rate : 48.0 KHz
Bit depth : 16 bits
Stream size : 33.7 MiB (3%)

Скриншоты:


_________________
Проголосуй за трекер Открытый торрент трекер - RUS-MEDIA.ORG

Проголосуй Открытый торрент трекер - RUS-MEDIA.ORG


Вернуться к началу
 Профиль Отправить личное сообщение  
 
   Похожие торренты   Автор   Торрент   Размер 
В этой теме нет новых непрочитанных сообщений. First Time Wet Anal Pleasure (2016) 1080P

salma3

0 | 0

1.01 ГБ

В этой теме нет новых непрочитанных сообщений. Jessi Pure Toy Pleasure (2016) 1080p

salma3

0 | 0

704 МБ

В этой теме нет новых непрочитанных сообщений. Kendra Kox Double The Pleasure (2016) 1080p

salma3

0 | 0

2.33 ГБ

В этой теме нет новых непрочитанных сообщений. [DorcelClub.com] Lilu Moon ( GUILTY PLEASURE) [2018 г., All Sex Hardcore Anal, 1080p]

salma3

38 | 13

340.03 МБ

В этой теме нет новых непрочитанных сообщений. [21EroticAnal.com / 21Naturals.com] Lucette Nice (Lucettes Deep Anal Pleasure / 2017-11-11) [2017 г., Anal, Blowjob, Lingerie, Big Dick, Babes, Blonde, One On One, Toys, Cumshot, 1080p]

salma3

38 | 13

934.02 МБ

В этой теме нет новых непрочитанных сообщений. [AlettaOceanLive.com] Aletta Ocean (Black Leather Double Pleasure / 03.11.17.) [2017 г., Gonzo, Anal, DP, 1080p]

salma3

38 | 13

1.11 ГБ

В этой теме нет новых непрочитанных сообщений. [DorcelClub.com] Lana Rhoades (Double Dose Of Pleasure / 02.03.2018) [DP, Anal, Threesome, MMF, Big Tits, 1080p]

salma3

38 | 13

288 МБ


Начать новую тему Ответить на тему  [ 1 сообщение ] 




Для Мосгорсуда, Роскомнадзора и рекламодателей:: mosgorsud-torrent[собачка]yandex.ru
cron