Торрент файл
скачать торрент магнет ссылка Добавлен: 24 мар 2017, 14:02
Размер: 452.59 МБ
Сидеров: 0
Личеров: 0
Автор

СообщениеДобавлено: 24 мар 2017, 14:02 

Не в сети
Супермодератор
Аватара пользователя
Дата регистрации:
15 фев 2012, 16:44
Возраст: 28
Спасибо: 6640 / 2146
Сообщения: 45613

Год производства: 2016
Жанр: Glamour Girls , Teen
Продолжительность: 12mn 22s
В ролях: Noel Monique

Тип видео : HD
Формат видео : MP4

Video
ID : 1
Format : AVC
Format/Info : Advanced Video Codec
Format profile : Baseline@L4
Format settings, CABAC : No
Format settings, ReFrames : 3 frames
Codec ID : avc1
Codec ID/Info : Advanced Video Coding
Duration : 12mn 22s
Bit rate : 5 000 Kbps
Width : 1 920 pixels
Height : 1 080 pixels
Display aspect ratio : 16:9
Frame rate mode : Constant
Frame rate : 29.970 (30000/1001) fps
Color space : YUV
Chroma subsampling : 4:2:0
Bit depth : 8 bits
Scan type : Progressive
Bits/(Pixel*Frame) : 0.080
Stream size : 444 MiB (98%)
Writing library : x264 core 148
Encoding settings : cabac=0 / ref=3 / deblock=1:0:0 / analyse=0x1:0x111 / me=hex / subme=7 / psy=1 / psy_rd=1.00:0.00 / mixed_ref=1 / me_range=16 / chroma_me=1 / trellis=1 / 8x8dct=0 / cqm=0 / deadzone=21,11 / fast_pskip=1 / chroma_qp_offset=-2 / threads=8 / lookahead_threads=1 / sliced_threads=0 / nr=0 / decimate=1 / interlaced=0 / bluray_compat=0 / constrained_intra=0 / bframes=0 / weightp=0 / keyint=250 / keyint_min=25 / scenecut=40 / intra_refresh=0 / rc_lookahead=40 / rc=abr / mbtree=1 / bitrate=5000 / ratetol=1.0 / qcomp=0.60 / qpmin=0 / qpmax=69 / qpstep=4 / ip_ratio=1.40 / aq=1:1.00
Encoded date : UTC 1904-01-01 00:00:00
Tagged date : UTC 1904-01-01 00:00:00

Audio
ID : 2
Format : AAC
Format/Info : Advanced Audio Codec
Format profile : LC
Codec ID : 40
Duration : 12mn 22s
Duration_LastFrame : 11ms
Bit rate mode : Constant
Bit rate : 96.0 Kbps
Channel(s) : 2 channels
Channel positions : Front: L R
Sampling rate : 44.1 KHz
Frame rate : 43.066 fps (1024 spf)
Compression mode : Lossy
Stream size : 8.44 MiB (2%)
Default : Yes
Alternate group : 1
Encoded date : UTC 1904-01-01 00:00:00
Tagged date : UTC 1904-01-01 00:00:00

Скриншоты:


_________________
Проголосуй за трекер Открытый торрент трекер - RUS-MEDIA.ORG

Проголосуй Открытый торрент трекер - RUS-MEDIA.ORG



реклама партнёра


Вернуться к началу
 Профиль Отправить личное сообщение  
 
   Похожие торренты   Автор   Торрент   Размер 
В этой теме нет новых непрочитанных сообщений. Счастливого Рождества / Joyeux Noël / Joyeux Noel / Merry Christmas [драма, мелодрама, военный, история, музыка, 2005] BDRip 720p, Mvo+Dvo+Sub

salma3

14 | 3

4.07 ГБ

В этой теме нет новых непрочитанных сообщений. Дед Мороз - отморозок / Le pere Noel est une ordure [комедия, 1982] BDRemux 1080p, Dvo

salma3

7 | 5

19.7 ГБ

В этой теме нет новых непрочитанных сообщений. [JulesJordan.com] Monique Alexander (Monique Alexander Gets Massacred By Mandingo's 14 Inch BBC / 23.04.17.) [2017 г., Gonzo, IR, 360p]

salma3

38 | 13

239.56 МБ

В этой теме нет новых непрочитанных сообщений. Dying Light: The Following - Enhanced Edition [v.1.12.1] [+DLCs] [Action, 3D, 1st Person, 2016] [RePack]

vitalikmd

267 | 119

12.6 ГБ

В этой теме нет новых непрочитанных сообщений. MIND: Path to Thalamus Enhanced Edition [Logic (Puzzle), 3D, 1st Person, 2016] [Steam-Rip]

Sykre

14 | 2

2.53 ГБ

В этой теме нет новых непрочитанных сообщений. Dying Light: The Following - Enhanced Edition [v.1.10.1] [+DLCs] [Action, Survival horror, 3D, 2016] [RePack]

vitalikmd

5490 | 700

13.02 ГБ

В этой теме нет новых непрочитанных сообщений. Dying Light: The Following - Enhanced Edition [v.1.11.0] [+DLCs] [Action, Survival horror, 3D, 2016] [RePack]

salma3

1622 | 1208

14.56 ГБ


Начать новую тему Ответить на тему  [ 1 сообщение ] 




Для Мосгорсуда, Роскомнадзора и рекламодателей:: mosgorsud-torrent[собачка]yandex.ru