Торрент файл
скачать торрент магнет ссылка Добавлен: 24 мар 2017, 14:02
Размер: 2.3 ГБ
Сидеров: 0
Личеров: 0
Автор

СообщениеДобавлено: 24 мар 2017, 14:02 

Не в сети
Супермодератор
Аватара пользователя
Дата регистрации:
15 фев 2012, 16:44
Возраст: 28
Спасибо: 7290 / 2147
Сообщения: 70618
Год производства: 2016
Жанр: Big Tits , Big Butts
В ролях: Katt Garcia

Тип видео : HD
Формат видео : MP4
Video
ID : 1
Format : AVC
Format/Info : Advanced Video Codec
Format profile : High@L4.1
Format settings, CABAC : Yes
Format settings, ReFrames : 3 frames
Codec ID : avc1
Codec ID/Info : Advanced Video Coding
Duration : 32mn 56s
Bit rate mode : Variable
Bit rate : 9 944 Kbps
Maximum bit rate : 12.0 Mbps
Width : 1 920 pixels
Height : 1 080 pixels
Display aspect ratio : 16:9
Frame rate mode : Constant
Frame rate : 29.970 (30000/1001) fps
Standard : NTSC
Color space : YUV
Chroma subsampling : 4:2:0
Bit depth : 8 bits
Scan type : Progressive
Bits/(Pixel*Frame) : 0.160
Stream size : 2.29 GiB (99%)
Encoded date : UTC 1904-01-01 00:00:00
Tagged date : UTC 1904-01-01 00:00:00
Color range : Limited
Color primaries : BT.709
Transfer characteristics : BT.709
Matrix coefficients : BT.709

Audio
ID : 2
Format : AAC
Format/Info : Advanced Audio Codec
Format profile : LC
Codec ID : 40
Duration : 32mn 56s
Bit rate mode : Constant
Bit rate : 48.0 Kbps
Channel(s) : 2 channels
Channel positions : Front: L R
Sampling rate : 32.0 KHz
Frame rate : 31.250 fps (1024 spf)
Compression mode : Lossy
Stream size : 10.9 MiB (0%)
Default : Yes
Alternate group : 1
Encoded date : UTC 1904-01-01 00:00:00
Tagged date : UTC 1904-01-01 00:00:00

Скриншоты:


_________________
Проголосуй за трекер Открытый торрент трекер - RUS-MEDIA.ORG

Проголосуй Открытый торрент трекер - RUS-MEDIA.ORG


Вернуться к началу
 Профиль Отправить личное сообщение  
 
   Похожие торренты   Автор   Торрент   Размер 
В этой теме нет новых непрочитанных сообщений. [BigTitsRoundAsses.com / BangBros.com] Katt Garcia (Busty Katt Garcia breaks in a new cock / btra15950 / 13.04.2017) [Big Ass, Big Booty, Bit Tits, Black, Blowjob, Busty, Cow Girl, Cum Shot, Doggystyle, Ebony, Facial, Hardcore, Latina, Ridi

salma3

36 | 12

401.89 МБ

В этой теме нет новых непрочитанных сообщений. [BrownBunnies.com / BangBros.com] Katt Garcia - Sibling’s Rivalry (bkb16084 / 18.08.2017) [Anal, Big Ass, Big Booty, Big Tits, Black, Blowjob, Brunette, Busty, Cumshot, Ebony, Hardcore, Pornstar, Shaved, Step Sister, Vaginal]

salma3

12 | 4

360.67 МБ

В этой теме нет новых непрочитанных сообщений. [DirtyMasseur.com / Brazzers.com] Katt Garcia - Touching After Tennis (28.06.2017) [Anal, Big Tits, Big Tits Worship, Black Hair, Blowjob (POV), Latina, Massage, Natural Tits, Oil, Side Fuck (POV), Sneaky, Sports, Work Fantasies]

salma3

6 | 2

604.24 МБ

В этой теме нет новых непрочитанных сообщений. [DirtyMasseur.com / Brazzers.com] Katt Garcia - Touching After Tennis (28.06.2017) [Anal, Big Tits, Big Tits Worship, Black Hair, Blowjob (POV), Latina, Massage, Natural Tits, Oil, Side Fuck (POV), Sneaky, Sports, Work Fantasies]

salma3

14 | 5

321.18 МБ

В этой теме нет новых непрочитанных сообщений. Lorena Garcia (72) (Bianca Garcia, Lorena B, Lorena G, Lorena Domingo) MegaPack [2013-2017, Solo, Lesbo, Masturbation, Toy]

salma3

0 | 0

52.36 ГБ

В этой теме нет новых непрочитанных сообщений. Ana Rock / Rafa Garcia (2011) HD 1080p

Dile-1

10 | 10

686.48 МБ

В этой теме нет новых непрочитанных сообщений. Принесите мне голову Альфредо Гарсиа / Bring Me the Head of Alfredo Garcia [Боевик, триллер, вестерн, 1974] BDRemux 1080p, Mvo

salma3

25 | 48

32.44 ГБ


Начать новую тему Ответить на тему  [ 1 сообщение ] 




Для Мосгорсуда, Роскомнадзора и рекламодателей:: mosgorsud-torrent[собачка]yandex.ru
cron