Торрент файл
скачать торрент магнет ссылка Добавлен: 24 мар 2017, 14:01
Размер: 667.02 МБ
Сидеров: 0
Личеров: 0
Автор

СообщениеДобавлено: 24 мар 2017, 14:01 

Не в сети
Супермодератор
Аватара пользователя
Дата регистрации:
15 фев 2012, 16:44
Возраст: 28
Спасибо: 7165 / 2147
Сообщения: 62107

Год производства: 2016
Жанр: Solo,Masturbation,Small Tits , Skinny , Petite
В ролях: Juliette March

Тип видео : HD
Формат видео : MP4
Video
ID : 1
Format : AVC
Format/Info : Advanced Video Codec
Format profile : High@L4.1
Format settings, CABAC : Yes
Format settings, ReFrames : 3 frames
Codec ID : avc1
Codec ID/Info : Advanced Video Coding
Duration : 15mn 12s
Bit rate mode : Variable
Bit rate : 6 000 Kbps
Maximum bit rate : 60.0 Mbps
Width : 1 920 pixels
Height : 1 080 pixels
Display aspect ratio : 16:9
Frame rate mode : Variable
Frame rate : 23.976 (24000/1001) fps
Minimum frame rate : 23.976 fps
Maximum frame rate : 24.000 fps
Standard : NTSC
Color space : YUV
Chroma subsampling : 4:2:0
Bit depth : 8 bits
Scan type : Progressive
Bits/(Pixel*Frame) : 0.121
Stream size : 653 MiB (98%)
Encoded date : UTC 1904-01-01 00:00:00
Tagged date : UTC 1904-01-01 00:00:00
Color range : Limited
Color primaries : BT.709
Transfer characteristics : BT.709
Matrix coefficients : BT.709

Audio
ID : 2
Format : AAC
Format/Info : Advanced Audio Codec
Format profile : LC
Codec ID : 40
Duration : 15mn 12s
Bit rate mode : Constant
Bit rate : 128 Kbps
Channel(s) : 2 channels
Channel positions : Front: L R
Sampling rate : 48.0 KHz
Frame rate : 46.875 fps (1024 spf)
Compression mode : Lossy
Stream size : 13.9 MiB (2%)
Default : Yes
Alternate group : 1
Encoded date : UTC 1904-01-01 00:00:00
Tagged date : UTC 1904-01-01 00:00:00

Скриншоты:


_________________
Проголосуй за трекер Открытый торрент трекер - RUS-MEDIA.ORG

Проголосуй Открытый торрент трекер - RUS-MEDIA.ORG


Вернуться к началу
 Профиль Отправить личное сообщение  
 
   Похожие торренты   Автор   Торрент   Размер 
В этой теме нет новых непрочитанных сообщений. Alice March (2016) 1080p

salma3

0 | 0

2.26 ГБ

В этой теме нет новых непрочитанных сообщений. [GirlsOutWest.com] Aastrid (Dial 1 For Love) - 2016-10-18 [2016 г., Masturbation, Orgasm, Dildo, Hairy, Small Boobs, Squirting, 1080p]

salma3

6 | 2

1.33 ГБ

В этой теме нет новых непрочитанных сообщений. [GirlsOutWest.com] Bertie (Juicy) - 2016-12-21 [2016 г., Hairy Armpits, Hairy, Insertion, Masturbation, Orgasm, Dildo, 1080p]

salma3

3 | 1

1.25 ГБ

В этой теме нет новых непрочитанных сообщений. Bobbi Dylan Masturbation (2016) 1080p

salma3

0 | 0

615.08 МБ

В этой теме нет новых непрочитанных сообщений. Madison Sage Masturbation 1 (2016) 1080p

salma3

0 | 1

669.58 МБ

В этой теме нет новых непрочитанных сообщений. Krystal Orchid Masturbation (2016) 1080p

salma3

0 | 0

651.43 МБ

В этой теме нет новых непрочитанных сообщений. Sheena Ryder Masturbation (2016) 1080p

salma3

3 | 1

673.22 МБ


Начать новую тему Ответить на тему  [ 1 сообщение ] 




Для Мосгорсуда, Роскомнадзора и рекламодателей:: mosgorsud-torrent[собачка]yandex.ru
cron